Results 1 to 1 of 1
  1. #1
    Hot Member www.desirulez.net
    Join Date
    Jan 2011
    Posts
    1,881

    T

    Thumbs up GAME (2011) 1CD - DVDRiP - Xvid - MP3 - Team TNT

    Follow us on Social Media







    GAME (2011) 1CD - DVDRiP - Xvid - MP3 - Team TNT



    Code:
    Director:Abhinay Deo
    Writer:Farhan Akhtar (dialogue)
    Stars:Abhishek Bachchan, Sarah-Jane Dias and Shahana Goswami 
    Release Date: 1 April 2011 (India)
    Storyline:
    Four strangers (Neil Menon, OP Ramsay, Tisha Khanna and Vikram Kapoor) are invited by the reclusive Kabir Malhotra, to his private island of Samos, Greece. They don't know each other and they don't know him ... and by the next morning they will wish they had never come. 
    
    http://www.imdb.com/title/tt1805263/
    
    Format : MPEG-4
    Format profile : Base Media / Version 2
    Codec ID : mp42
    File size : 367 MiB
    Duration : 2h 26mn
    Overall bit rate : 351 Kbps
    Encoded date : UTC 2011-05-14 02:56:56
    Tagged date : UTC 2011-05-14 03:46:26
    Writing application : HandBrake 0.9.5 2011010300
    
    Video
    ID : 1
    Format : AVC
    Format/Info : Advanced Video Codec
    Format profile : [email protected]
    Format settings, CABAC : Yes
    Format settings, ReFrames : 4 frames
    Codec ID : avc1
    Codec ID/Info : Advanced Video Coding
    Duration : 2h 26mn
    Bit rate mode : Variable
    Bit rate : 275 Kbps
    Width : 608 pixels
    Height : 288 pixels
    Display aspect ratio : 2.40:1
    Original display aspect ratio : 2.35:1
    Frame rate mode : Variable
    Frame rate : 23.976 fps
    Minimum frame rate : 23.810 fps
    Maximum frame rate : 1 000.000 fps
    Color space : YUV
    Chroma subsampling : 4:2:0
    Bit depth : 8 bits
    Scan type : Progressive
    Bits/(Pixel*Frame) : 0.066
    Stream size : 296 MiB (81%)
    Writing library : x264 core 112
    
    
    Audio
    ID : 2
    Format : MPEG Audio
    Format version : Version 1
    Format profile : Layer 3
    Mode : Joint stereo
    Mode extension : MS Stereo
    Codec ID : 69
    Duration : 2h 26mn
    Bit rate mode : Variable
    Bit rate : 62.8 Kbps
    Maximum bit rate : 73.1 Kbps
    Channel(s) : 2 channels
    Sampling rate : 48.0 KHz
    Compression mode : Lossy
    Stream size : 65.6 MiB (18%)
    Language : Hindi













    Code:
    http://www.filesonic.com/file/993151474/GAME.2011.1CD.DVDRiP.Xvid.MP3.TNT.avi

    Code:
    http://www.fileserve.com/file/Ymd6Gbc/GAME.2011.1CD.DVDRiP.Xvid.MP3.TNT.avi

    Code:
    http://bitshare.com/files/pr6gfzia/GAME.2011.1CD.-DVDRiP.Xvid.MP3.TNT.avi.html

    Code:
    http://www.duckload.com/download/5688326/GAME.2011.1CD._DVDRiP.Xvid.MP3.TNT.avi

 

 

Posting Permissions

  • You may not post new threads
  • You may not post replies
  • You may not post attachments
  • You may not edit your posts
  •