Results 1 to 1 of 1
  1. #1
    Banned www.desirulez.net
    Join Date
    Jan 2010
    Posts
    2,522

    T

    Thumbs up A Flat {2010} - 1CD Dvdrip - x264 ( Horror )

    Follow us on Social Media







    A Flat {2010} - 1CD Dvdrip - x264 ( Horror )







    Cast :

    Jimmy Shergill, Sanjay Suri, Hazel , Kaveri Jha, Sachin Khedekar


    Synopsis :


    Someone else's past can change the course of your life....... A spate of unexpected events jolted Rahul as soon as he landed from U.S. to pacify his lost love Preeti. First, the mysterious death of his dad when he visited the flat…. followed by the baffling disappearance of Preeti... AND NOW suddenly Rahul finds himself trapped in his own FLAT.... completely cut off from the world…. the only companion he has is a GHOST.... a ghost that will not let go of him.... The FLAT becomes Rahul’s soul searching journey…. Is it a trap or is it a figment of his imagination…??? soon he realizes that he was not fair with his own soul-mate Preeti.... the fact that someone else’s past can actually change the course of your life gives him the shudders…. He must find the solution if he has to come out of this quagmire… Or the ghost will not spare him...


    Ripper : snaink
    Source : DVD9 @ ictv

    General

    Format : Matroska
    File size : 699 MiB
    Duration : 1h 36mn
    Overall bit rate : 1 012 Kbps
    Encoded date : UTC 2010-12-08 06:11:08

    Video
    Format : AVC
    Format/Info : Advanced Video Codec
    Format profile : [email protected]
    Format settings, CABAC : Yes
    Format settings, ReFrames : 4 frames
    Muxing mode : Container [email protected]
    Codec ID : V_MPEG4/ISO/AVC
    Duration : 1h 36mn
    Bit rate : 562 Kbps
    Width : 688 pixels
    Height : 288 pixels
    Display aspect ratio : 2.35:1
    Frame rate : 29.970 fps
    Color space : YUV
    Chroma subsampling : 4:2:0
    Bit depth : 8 bits
    Scan type : Progressive
    Bits/(Pixel*Frame) : 0.095
    Stream size : 376 MiB (54%)
    Writing library : x264 core 98 r1649 c54c47d

    Audio
    Format : AC-3
    Format/Info : Audio Coding 3
    Mode extension : CM (complete main)
    Codec ID : A_AC3
    Duration : 1h 36mn
    Bit rate mode : Constant
    Bit rate : 448 Kbps
    Channel(s) : 6 channels
    Channel positions : Front: L C R, Side: L R, LFE
    Sampling rate : 48.0 KHz
    Stream size : 310 MiB (44%)










    Code:
    http://hotfile.com/dl/94965463/6fa674f/A.Flat.2010.DVDrip.1CD.Xvid.E-Subs.By.Deejam.part1.rar.html
    http://hotfile.com/dl/94965921/57dc1d8/A.Flat.2010.DVDrip.1CD.Xvid.E-Subs.By.Deejam.part2.rar.html
    http://hotfile.com/dl/94965777/4d535d6/A.Flat.2010.DVDrip.1CD.Xvid.E-Subs.By.Deejam.part3.rar.html
    http://hotfile.com/dl/94964893/386df30/A.Flat.2010.DVDrip.1CD.Xvid.E-Subs.By.Deejam.part4.rar.html
    
    
    
    or
    
    
    http://www.fileserve.com/file/WTrAav5/A.Flat.2010.DVDrip.1CD.Xvid.E-Subs.By.Deejam.part1.rar
    http://www.fileserve.com/file/nWcAFNh/A.Flat.2010.DVDrip.1CD.Xvid.E-Subs.By.Deejam.part2.rar
    http://www.fileserve.com/file/txgWYnd/A.Flat.2010.DVDrip.1CD.Xvid.E-Subs.By.Deejam.part3.rar
    http://www.fileserve.com/file/wqhSZU3/A.Flat.2010.DVDrip.1CD.Xvid.E-Subs.By.Deejam.part4.rar
    
    or
    
    
    http://www.filesonic.com/file/53612863/A.Flat.2010.DVDrip.1CD.Xvid.E-Subs.By.Deejam.part1.rar
    http://www.filesonic.com/file/53612877/A.Flat.2010.DVDrip.1CD.Xvid.E-Subs.By.Deejam.part2.rar
    http://www.filesonic.com/file/53612841/A.Flat.2010.DVDrip.1CD.Xvid.E-Subs.By.Deejam.part3.rar
    http://www.filesonic.com/file/53612219/A.Flat.2010.DVDrip.1CD.Xvid.E-Subs.By.Deejam.part4.rar




 

 

Posting Permissions

  • You may not post new threads
  • You may not post replies
  • You may not post attachments
  • You may not edit your posts
  •