Results 1 to 1 of 1
  1. #1
    Banned www.desirulez.net
    Join Date
    Sep 2011
    Posts
    75

    T

    Default Fertile Ground 2010 BRRip XviD Ac3 Feel-Free

    Follow us on Social Media







    Fertile Ground 2010 BRRip XviD Ac3 Feel-Free




    Code:
    Genre:Horror
    Language:English
    IMDb:http://www.imdb.com/title/tt1515199/
    Source:720p BluRay Thanks!
    
    Format                           : AVI
    Format/Info                      : Audio Video Interleave
    File size                        : 1.03 GiB
    Duration                         : 1h 35mn
    Overall bit rate                 : 1 554 Kbps
    
    Video
    ID                               : 0
    Format                           : MPEG-4 Visual
    Format profile                   : Advanced [email protected]
    Format settings, BVOP            : Yes
    Format settings, QPel            : No
    Format settings, GMC             : No warppoints
    Format settings, Matrix          : Default (H.263)
    Codec ID                         : XVID
    Codec ID/Hint                    : XviD
    Duration                         : 1h 35mn
    Bit rate                         : 1 097 Kbps
    Width                            : 640 pixels
    Height                           : 360 pixels
    Display aspect ratio             : 16:9
    Frame rate                       : 23.976 fps
    Color space                      : YUV
    Chroma subsampling               : 4:2:0
    Bit depth                        : 8 bits
    Scan type                        : Progressive
    Bits/(Pixel*Frame)               : 0.199
    Stream size                      : 747 MiB (71%)
    Writing library                  : XviD 1.2.1 (UTC 2008-12-04)
    
    Audio
    ID                               : 1
    Format                           : AC-3
    Format/Info                      : Audio Coding 3
    Mode extension                   : CM (complete main)
    Codec ID                         : 2000
    Duration                         : 1h 35mn
    Bit rate mode                    : Constant
    Bit rate                         : 448 Kbps
    Channel(s)                       : 6 channels
    Channel positions                : Front: L C R, Side: L R, LFE
    Sampling rate                    : 48.0 KHz
    Bit depth                        : 16 bits
    Stream size                      : 305 MiB (29%)
    Alignment                        : Aligned on interleaves
    Interleave, duration             : 42 ms (1.00 video frame)
    Interleave, preload duration     : 512 ms
    
        
    Plot:
       Emily and Nate Weaver leave the city for the rural comfort of Nate's  ancestral home in
    the country. Once there, Emily is plagued by  horrifying visions and haunted by the
    ghosts inhabiting their isolated  new home





    Code:
    One Link Download
    
    filejungle
    http://www.filejungle.com/f/fFpNvg
    
    Wupload
    http://www.wupload.com/file/197036931
    
    FileServe
    http://www.fileserve.com/file/pcwsSsq
    
    700 Mb
    
    FileSonic
    http://www.filesonic.com/file/2090655044
    http://www.filesonic.com/file/2090653944

 

 

Posting Permissions

  • You may not post new threads
  • You may not post replies
  • You may not post attachments
  • You may not edit your posts
  •