Results 1 to 1 of 1
  1. #1
    Banned www.desirulez.net
    Join Date
    Jan 2010
    Posts
    2,522

    T

    Thumbs up Farishtay (1991) 2CD XViD 6 Channel AC3 Sound English Subtitles

    Follow us on Social Media







    Farishtay (1991) 2CD XViD 6 Channel AC3 Sound English Subtitles





    Format : AVI
    Format/Info : Audio Video Interleave
    File size : 1.37 GiB
    Duration : 3h 16mn
    Overall bit rate : 997 Kbps
    Writing application : VirtualDubMod 1.5.4.1 (build 2178/release)
    Writing library : VirtualDubMod build 2178/release

    Video
    ID : 0
    Format : MPEG-4 Visual
    Format profile : [email protected]
    Format settings, BVOP : Yes
    Format settings, QPel : No
    Format settings, GMC : No warppoints
    Format settings, Matrix : Custom
    Codec ID : XVID
    Codec ID/Hint : XviD
    Duration : 3h 16mn
    Bit rate : 798 Kbps
    Width : 640 pixels
    Height : 272 pixels
    Display aspect ratio : 2.35:1
    Frame rate : 23.976 fps
    Resolution : 24 bits
    Colorimetry : 4:2:0
    Scan type : Progressive
    Bits/(Pixel*Frame) : 0.191
    Stream size : 1.09 GiB (80%)
    Writing library : XviD 58

    Audio
    ID : 1
    Format : AC-3
    Format/Info : Audio Coding 3
    Codec ID : 2000
    Duration : 3h 16mn
    Bit rate mode : Constant
    Bit rate : 192 Kbps
    Channel(s) : 6 channels
    Channel positions : Front: L C R, Surround: L R, LFE
    Sampling rate : 48.0 KHz
    Stream size : 270 MiB (19%)
    Alignment : Split accross interleaves
    Interleave, duration : 96 ms (2.30 video frames)
    Interleave, preload duration : 96 ms



















    400Mb Links



    Code:
    http://hotfile.com/dl/99799172/d842ca4/Farishtey.1991.DVDRIP.2CD.By.Deejam.part1.rar.html
    http://hotfile.com/dl/99799265/4c5110e/Farishtey.1991.DVDRIP.2CD.By.Deejam.part2.rar.html
    http://hotfile.com/dl/99799137/6ff0fb8/Farishtey.1991.DVDRIP.2CD.By.Deejam.part3.rar.html
    http://hotfile.com/dl/99799247/f596af2/Farishtey.1991.DVDRIP.2CD.By.Deejam.part4.rar.html

    OR
    Code:
    http://www.filesonic.com/file/65239513/Farishtey.1991.DVDRIP.2CD.By.Deejam.part1.rar
    http://www.filesonic.com/file/65239065/Farishtey.1991.DVDRIP.2CD.By.Deejam.part2.rar
    http://www.filesonic.com/file/65239639/Farishtey.1991.DVDRIP.2CD.By.Deejam.part3.rar
    http://www.filesonic.com/file/65239261/Farishtey.1991.DVDRIP.2CD.By.Deejam.part4.rar
    OR

    Code:
    http://www.fileserve.com/file/NNDmvsR/Farishtey.1991.DVDRIP.2CD.By.Deejam.part1.rar
    http://www.fileserve.com/file/wJwcNMz/Farishtey.1991.DVDRIP.2CD.By.Deejam.part1.rar
    http://www.fileserve.com/file/m2JT7Me/Farishtey.1991.DVDRIP.2CD.By.Deejam.part2.rar
    http://www.fileserve.com/file/ZwrZ5yP/Farishtey.1991.DVDRIP.2CD.By.Deejam.part3.rar
    http://www.fileserve.com/file/XANdvMT/Farishtey.1991.DVDRIP.2CD.By.Deejam.part4.rar


    OR
    Code:
    http://www.duckload.com/download/2457652/Farishtey.1991.DVDRIP.2CD.By.Deejam.part3.rar
    http://www.duckload.com/download/2457650/Farishtey.1991.DVDRIP.2CD.By.Deejam.part1.rar
    http://www.duckload.com/download/2457649/Farishtey.1991.DVDRIP.2CD.By.Deejam.part2.rar
    http://www.duckload.com/download/2457644/Farishtey.1991.DVDRIP.2CD.By.Deejam.part4.rar



 

 

Posting Permissions

  • You may not post new threads
  • You may not post replies
  • You may not post attachments
  • You may not edit your posts
  •