Results 1 to 1 of 1
  1. #1

    Default Ek Aur Ek Gyarah (2003) - DVDRip - Xvid - WR

    Follow us on Social Media







    Ek Aur Ek Gyarah (2003) - DVDRip - Xvid - WR



    General : Action | Comedy | Crime | Adventure | Family
    Format : Matroska
    File size : 1.36 GiB
    Duration : 2h 36mn
    2 Cd Pack




    ScreenShot



    Video
    ID : 1
    Format : AVC
    Format/Info : Advanced Video Codec
    Format profile : [email protected]
    Format settings, CABAC : Yes
    Format settings, ReFrames : 3 frames
    Codec ID : V_MPEG4/ISO/AVC
    Duration : 2h 36mn
    Bit rate mode : Variable
    Bit rate : 991 Kbps
    Maximum bit rate : 25.0 Mbps
    Width : 716 pixels
    Height : 308 pixels
    Display aspect ratio : 2.35:1
    Frame rate : 23.976 fps
    Color space : YUV
    Chroma subsampling : 4:2:0
    Bit depth : 8 bits
    Scan type : Progressive
    Bits/(Pixel*Frame) : 0.187
    Stream size : 1.06 GiB (77%)
    Writing library : x264 core 67 r1169M ab85c9b
    Encoding settings : cabac=1 / ref=3 / deblock=1:2:2 / analyse=0x3:0x133 / me=umh / subme=7 / psy_rd=1.0:0.0 / mixed_ref=1 / me_range=16 / chroma_me=1 / trellis=1 / 8x8dct=1 / cqm=0 / deadzone=21,11 / chroma_qp_offset=-2 / threads=6 / nr=0 / decimate=1 / mbaff=0 / bframes=3 / b_pyramid=0 / b_adapt=1 / b_bias=0 / direct=3 / wpredb=1 / keyint=250 / keyint_min=25 / scenecut=40 / rc=2pass / bitrate=991 / ratetol=1.0 / qcomp=0.60 / qpmin=10 / qpmax=51 / qpstep=4 / cplxblur=20.0 / qblur=0.5 / vbv_maxrate=25000 / vbv_bufsize=25000 / ip_ratio=1.40 / pb_ratio=1.30 / aq=1:1.00

    Audio
    ID : 2
    Format : MPEG Audio
    Format version : Version 1
    Format profile : Layer 3
    Mode : Joint stereo
    Mode extension : MS Stereo
    Codec ID : A_MPEG/L3
    Codec ID/Hint : MP3
    Duration : 2h 36mn
    Bit rate mode : Constant
    Bit rate : 256 Kbps
    Channel(s) : 2 channels
    Sampling rate : 44.1 KHz
    Compression mode : Lossy
    Stream size : 286 MiB (21%)
    Writing library : LAME3.97

    Download Wupload
    Get Ek Aur Ek Gyarah (2003) - DVDRip - Xvid - WR(1) on Wupload.com Aur Ek Gyarah (2003) - DVDRip - Xvid - WR(1)
    Get Ek Aur Ek Gyarah (2003) - DVDRip - Xvid - WR(2) on Wupload.com Aur Ek Gyarah (2003) - DVDRip - Xvid - WR(2)

    Download Uploadstation
    Download Filesonic

 

 

Posting Permissions

  • You may not post new threads
  • You may not post replies
  • You may not post attachments
  • You may not edit your posts
  •