Results 1 to 1 of 1
  1. #1
    Super Member www.desirulez.net
    Join Date
    May 2011
    Posts
    240

    T

    Wink Dilwale [1994] - x264- AAC - 1 CD DVDRip - [ MDG ] MP4

    Follow us on Social Media







    Dilwale [1994] - x264- AAC - 1 CD DVDRip - [ MDG ] MP4



    Code:
    General
    Name : Dilwale
    Format : MPEG-4
    Format profile : Base Media
    Codec ID : isom
    File size : 698 MiB
    Duration : 2h 45mn
    Overall bit rate : 591 Kbps
    Video
    ID : 1
    Format : AVC
    Format/Info : Advanced Video Codec
    Format profile : [email protected]
    Format settings, CABAC : Yes
    Format settings, ReFrames : 4 frames
    Codec ID : avc1
    Codec ID/Info : Advanced Video Coding
    Duration : 2h 45mn
    Bit rate mode : Variable
    Bit rate : 524 Kbps
    Maximum bit rate : 2 201 Kbps
    Width : 608 pixels
    Height : 256 pixels
    Display aspect ratio : 2.35:1
    Frame rate mode : Constant
    Frame rate : 23.976 fps
    Color space : YUV
    Chroma subsampling : 4:2:0
    Bit depth : 8 bits
    Scan type : Progressive
    Bits/(Pixel*Frame) : 0.140
    Stream size : 619 MiB (89%)
    Audio
    ID : 2
    Format : AAC
    Format/Info : Advanced Audio Codec
    Format version : Version 4
    Format profile : LC
    Format settings, SBR : Yes
    Format settings, PS : No
    Codec ID : 40
    Duration : 2h 45mn
    Bit rate mode : Variable
    Bit rate : 64.0 Kbps
    Maximum bit rate : 70.1 Kbps
    Channel(s) : 2 channels
    Channel positions : Front: L R
    Sampling rate : 44.1 KHz
    Stream size : 75.5 MiB (11%)











    Download LiNk:-
    FileSonic:-
    Code:
    http://www.filesonic.com/file/1090179454/Dilwale.1994.DvDRip.mp4
    oR
    Oron:-
    Code:
    http://oron.com/6b3t7xrp6zqr/Dilwale.1994.DvDRip.mp4.html
    oR
    UploadStation:-
    Code:
    http://www.uploadstation.com/file/gWTDXSU/Dilwale.1994.DvDRip.mp4
    You are Allowed to Share My Post and My Links anywhere you want 2

 

 

Posting Permissions

  • You may not post new threads
  • You may not post replies
  • You may not post attachments
  • You may not edit your posts
  •