Results 1 to 1 of 1
  1. #1
    Banned www.desirulez.net
    Join Date
    Sep 2011
    Posts
    239

    T

    Default Diljale (1996) 2CD - 1.36GB - Xvid - Avi - DVD RIPS - Eng-Sub

    Follow us on Social Media









    Diljale (1996) 2CD - 1.36GB - Xvid - Avi - DVD RIPS - Eng-Sub




    Action | Drama | Romance

    Hindi

    Code:
    Captain Ranvir is assigned the task of apprehending two terrorists named Shaka and Dara. Upon arrival in the region, he meets with and falls in love with Radhika, the daughter of Rajasaheb, who also is a Mantri. The latter approves of him, and arranges his wedding with his daughter. Before the engagement could take place, Ranvir finds out that he has a rival in Shaka, who was in love with Radhika before, and is all set to prevent this marriage at any and costs. Ranvir decides to postpone his wedding until such time he arrests Shaka and his associates - a decision that will not only pit him against well-armed terrorists, but also result in the abduction of a bus-load of Vaishnodevi devotees - which include Radhika and her Bua.

    Ajay Devgan, Sonali Bendre, Amrish Puri Parmeet Sethi, Madhoo, Shakti Kapoor, Gulshan Grover, Farida Jalal, Akash Khurana


    Code:
    General
    Complete name                    : Diljale.1996-cd1-By  Asoo.avi
    Format                           : AVI
    Format/Info                      : Audio Video Interleave
    File size                        : 701 MiB
    Duration                         : 1h 19mn
    Overall bit rate                 : 1 238 Kbps
    Writing application              : VirtualDubMod 1.5.10.2 (build 2542/release)
    Writing library                  : VirtualDubMod build 2542/release
    
    Video
    ID                               : 0
    Format                           : MPEG-4 Visual
    Format profile                   : Advanced [email protected]
    Format settings, BVOP            : 1
    Format settings, QPel            : No
    Format settings, GMC             : No warppoints
    Format settings, Matrix          : Default (MPEG)
    Codec ID                         : XVID
    Codec ID/Hint                    : XviD
    Duration                         : 1h 19mn
    Bit rate                         : 1 120 Kbps
    Width                            : 608 pixels
    Height                           : 272 pixels
    Display aspect ratio             : 2.25:1
    Frame rate                       : 25.000 fps
    Color space                      : YUV
    Chroma subsampling               : 4:2:0
    Bit depth                        : 8 bits
    Scan type                        : Progressive
    Compression mode                 : Lossy
    Bits/(Pixel*Frame)               : 0.271
    Stream size                      : 634 MiB (90%)
    Writing library                  : XviD 1.2.1 (UTC 2008-12-04)
    
    Audio
    ID                               : 1
    Format                           : MPEG Audio
    Format version                   : Version 1
    Format profile                   : Layer 3
    Mode                             : Joint stereo
    Mode extension                   : MS Stereo
    Codec ID                         : 55
    Codec ID/Hint                    : MP3
    Duration                         : 1h 19mn
    Bit rate mode                    : Variable
    Bit rate                         : 105 Kbps
    Channel(s)                       : 2 channels
    Sampling rate                    : 48.0 KHz
    Compression mode                 : Lossy
    Stream size                      : 59.4 MiB (8%)
    Alignment                        : Aligned on interleaves
    Interleave, duration             : 24 ms (0.60 video frame)
    Interleave, preload duration     : 487 ms
    ---------------------------------------------------------------------------------
    General
    Complete name                    : Diljale.1996-cd2-By  Asoo.avi
    Format                           : AVI
    Format/Info                      : Audio Video Interleave
    File size                        : 698 MiB
    Duration                         : 1h 20mn
    Overall bit rate                 : 1 214 Kbps
    Writing application              : VirtualDubMod 1.5.10.2 (build 2542/release)
    Writing library                  : VirtualDubMod build 2542/release
    
    Video
    ID                               : 0
    Format                           : MPEG-4 Visual
    Format profile                   : Advanced [email protected]
    Format settings, BVOP            : 1
    Format settings, QPel            : No
    Format settings, GMC             : No warppoints
    Format settings, Matrix          : Default (MPEG)
    Codec ID                         : XVID
    Codec ID/Hint                    : XviD
    Duration                         : 1h 20mn
    Bit rate                         : 1 096 Kbps
    Width                            : 608 pixels
    Height                           : 272 pixels
    Display aspect ratio             : 2.25:1
    Frame rate                       : 25.000 fps
    Color space                      : YUV
    Chroma subsampling               : 4:2:0
    Bit depth                        : 8 bits
    Scan type                        : Progressive
    Compression mode                 : Lossy
    Bits/(Pixel*Frame)               : 0.265
    Stream size                      : 631 MiB (90%)
    Writing library                  : XviD 1.2.1 (UTC 2008-12-04)
    
    Audio
    ID                               : 1
    Format                           : MPEG Audio
    Format version                   : Version 1
    Format profile                   : Layer 3
    Mode                             : Joint stereo
    Mode extension                   : MS Stereo
    Codec ID                         : 55
    Codec ID/Hint                    : MP3
    Duration                         : 1h 20mn
    Bit rate mode                    : Variable
    Bit rate                         : 105 Kbps
    Channel(s)                       : 2 channels
    Sampling rate                    : 48.0 KHz
    Compression mode                 : Lossy
    Stream size                      : 60.3 MiB (9%)
    Alignment                        : Aligned on interleaves
    Interleave, duration             : 24 ms (0.60 video frame)
    Interleave, preload duration     : 498 ms




    Code:
    http://www.fileserve.com/file/YtZffuS/Diljale.1996-cd1-By__Asoo.avi
    http://www.fileserve.com/file/CXdSUhj/Diljale.1996-cd2-By__Asoo.avi
    Code:
    http://www.filesonic.com/file/1855791704/Diljale.1996-cd1-By__Asoo.avi
    http://www.filesonic.com/file/1855662011/Diljale.1996-cd2-By__Asoo.avi
    Code:
    http://www.wupload.com/file/140576606/Diljale.1996-cd1-By__Asoo.avi
    http://www.wupload.com/file/140473897/Diljale.1996-cd2-By__Asoo.avi
    Code:
    http://oron.com/ert5lpjowggc
    http://oron.com/px6sabzl1kbr
    English Subtitles

    Code:
    http://www.fileserve.com/file/BHyAhzP/Diljale.1996-cd1-By__Asoo.srt
    http://www.fileserve.com/file/dYj3Djq/Diljale.1996-cd2-By__Asoo.srt

 

 

Posting Permissions

  • You may not post new threads
  • You may not post replies
  • You may not post attachments
  • You may not edit your posts
  •