Results 1 to 1 of 1
  1. #1
    Banned www.desirulez.net
    Join Date
    Jan 2010
    Posts
    2,522

    T

    Thumbs up Dil Ka Kya Kasoor (1992) DvD - 2CD - Rip - Xvid - Esub

    Follow us on Social Media







    Dil Ka Kya Kasoor (1992) DvD - 2CD - Rip - Xvid - Esub










    Ripper : Rahul
    Complete name : Dil Ka Kya Kasoor (1992)
    Format : AVI
    Format/Info : Audio Video Interleave
    File size : 1.38 GiB
    Duration : 2h 37mn
    Overall bit rate : 1 254 Kbps

    Video
    ID : 0
    Format : MPEG-4 Visual
    Format profile : [email protected]
    Format settings, BVOP : No
    Format settings, QPel : No
    Format settings, GMC : No warppoints
    Format settings, Matrix : Default (H.263)
    Codec ID : XVID
    Codec ID/Hint : XviD
    Duration : 2h 37mn
    Bit rate : 795 Kbps
    Width : 640 pixels
    Height : 352 pixels
    Display aspect ratio : 16:9
    Frame rate : 23.976 fps
    Color space : YUV
    Chroma subsampling : 4:2:0
    Bit depth : 8 bits
    Scan type : Progressive
    Compression mode : Lossy
    Bits/(Pixel*Frame) : 0.147
    Stream size : 894 MiB (63%)
    Writing library : XviD 1.1.2 (UTC 2006-11-01)

    Audio
    ID : 1
    Format : AC-3
    Format/Info : Audio Coding 3
    Mode extension : CM (complete main)
    Codec ID : 2000
    Duration : 2h 37mn
    Bit rate mode : Constant
    Bit rate : 448 Kbps
    Channel(s) : 4 channels
    Channel positions : Front: L R, Side: L R
    Sampling rate : 48.0 KHz
    Bit depth : 16 bits
    Compression mode : Lossy
    Stream size : 504 MiB (36%)
    Alignment : Aligned on interleaves
    Interleave, duration : 32 ms (0.77 video frame)
    Interleave, preload duration : 512 ms


























    400MB Links



    Code:
    http://www.fileserve.com/file/78BaWre/Dil.Ka.Kya.Kasoor.1992.DvD.2CD.Rip.Xvid.Esub.By.Deejam.part1.rar
    http://www.fileserve.com/file/BvSpkgw/Dil.Ka.Kya.Kasoor.1992.DvD.2CD.Rip.Xvid.Esub.By.Deejam.part2.rar
    http://www.fileserve.com/file/S7U9X8E/Dil.Ka.Kya.Kasoor.1992.DvD.2CD.Rip.Xvid.Esub.By.Deejam.part3.rar
    http://www.fileserve.com/file/XFSvSTc/Dil.Ka.Kya.Kasoor.1992.DvD.2CD.Rip.Xvid.Esub.By.Deejam.part4.rar


    Code:
    http://www.filesonic.com/file/76606403/Dil.Ka.Kya.Kasoor.1992.DvD.2CD.Rip.Xvid.Esub.By.Deejam.part1.rar
    http://www.filesonic.com/file/76606749/Dil.Ka.Kya.Kasoor.1992.DvD.2CD.Rip.Xvid.Esub.By.Deejam.part2.rar
    http://www.filesonic.com/file/76606295/Dil.Ka.Kya.Kasoor.1992.DvD.2CD.Rip.Xvid.Esub.By.Deejam.part3.rar
    http://www.filesonic.com/file/76605627/Dil.Ka.Kya.Kasoor.1992.DvD.2CD.Rip.Xvid.Esub.By.Deejam.part4.rar


    Code:
    http://hotfile.com/dl/102614912/8e341a3/Dil.Ka.Kya.Kasoor.1992.DvD.2CD.Rip.Xvid.Esub.By.Deejam.part1.rar.html
    http://hotfile.com/dl/102615043/843f3e6/Dil.Ka.Kya.Kasoor.1992.DvD.2CD.Rip.Xvid.Esub.By.Deejam.part2.rar.html
    http://hotfile.com/dl/102614896/5e35b32/Dil.Ka.Kya.Kasoor.1992.DvD.2CD.Rip.Xvid.Esub.By.Deejam.part3.rar.html
    http://hotfile.com/dl/102614081/a367c9f/Dil.Ka.Kya.Kasoor.1992.DvD.2CD.Rip.Xvid.Esub.By.Deejam.part4.rar.html


    Code:
    http://www.duckload.com/download/2716167/Dil.Ka.Kya.Kasoor.1992.DvD.2CD.Rip.Xvid.Esub.By.Deejam.part1.rar
    http://www.duckload.com/download/2716165/Dil.Ka.Kya.Kasoor.1992.DvD.2CD.Rip.Xvid.Esub.By.Deejam.part2.rar
    http://www.duckload.com/download/2716163/Dil.Ka.Kya.Kasoor.1992.DvD.2CD.Rip.Xvid.Esub.By.Deejam.part3.rar
    http://www.duckload.com/download/2716142/Dil.Ka.Kya.Kasoor.1992.DvD.2CD.Rip.Xvid.Esub.By.Deejam.part4.rar






 

 

Posting Permissions

  • You may not post new threads
  • You may not post replies
  • You may not post attachments
  • You may not edit your posts
  •