Results 1 to 1 of 1
  1. #1
    Super Member www.desirulez.net
    Join Date
    Aug 2011
    Posts
    385

    T

    Post Dharam Kanta [1982] - 2.18GB - DVDRip - Upscaled - x264 - AC3 - 6 @ Dus Release

    Follow us on Social Media







    Dharam Kanta [1982] - 2.18GB - DVDRip - Upscaled - x264 - AC3 - 6 @ Dus Release



    ------------------------------------------------------------------
    Dharam Kanta [1982] DVDRip Upscaled x264 AC3 - 6 @ Dus Release
    ------------------------------------------------------------------

    General
    Unique ID : 241339611341271862903542824231264501971 (0xB59051844B36E2708439F6CD6F7AC0D3)
    Complete name : E:\Ripped\Dharam Kanta [1982] DVDRip Upscaled x264 AC3 - 6 @ Dus Release\Dharam Kanta [1982] DVDRip Upscaled x264 AC3 - 6 @ Dus Release.mkv
    Format : Matroska
    Format version : Version 2
    File size : 2.18 GiB
    Duration : 2h 30mn
    Overall bit rate mode : Variable
    Overall bit rate : 2 081 Kbps
    Encoded date : UTC 2011-12-05 15:29:07
    Writing application : mkvmerge v4.9.1 ('Ich will') built on Jul 11 2011 23:53:15
    Writing library : libebml v1.2.1 + libmatroska v1.1.1

    Video
    ID : 1
    Format : AVC
    Format/Info : Advanced Video Codec
    Format profile : [email protected]
    Format settings, CABAC : Yes
    Format settings, ReFrames : 3 frames
    Codec ID : V_MPEG4/ISO/AVC
    Duration : 2h 30mn
    Bit rate mode : Variable
    Bit rate : 1 823 Kbps
    Maximum bit rate : 40.0 Mbps
    Width : 1 280 pixels
    Height : 544 pixels
    Display aspect ratio : 2.35:1
    Frame rate : 29.970 fps
    Color space : YUV
    Chroma subsampling : 4:2:0
    Bit depth : 8 bits
    Scan type : Progressive
    Bits/(Pixel*Frame) : 0.087
    Stream size : 1.87 GiB (86%)
    Writing library : x264 core 116 r2074 2641b9e
    Encoding settings : cabac=1 / ref=3 / deblock=1:-1:-1 / analyse=0x3:0x113 / me=hex / subme=7 / psy=1 / psy_rd=1.00:0.15 / mixed_ref=1 / me_range=16 / chroma_me=1 / trellis=1 / 8x8dct=1 / cqm=0 / deadzone=21,11 / fast_pskip=1 / chroma_qp_offset=-3 / threads=3 / sliced_threads=0 / slices=4 / nr=0 / decimate=1 / interlaced=0 / bluray_compat=1 / constrained_intra=0 / bframes=3 / b_pyramid=1 / b_adapt=1 / b_bias=0 / direct=1 / weightb=1 / open_gop=1 / weightp=1 / keyint=30 / keyint_min=3 / scenecut=40 / intra_refresh=0 / rc_lookahead=30 / rc=2pass / mbtree=1 / bitrate=1823 / ratetol=1.0 / qcomp=0.60 / qpmin=10 / qpmax=51 / qpstep=4 / cplxblur=20.0 / qblur=0.5 / vbv_maxrate=40000 / vbv_bufsize=30000 / nal_hrd=vbr / ip_ratio=1.40 / aq=1:1.00
    Language : English

    Audio
    ID : 2
    Format : AC-3
    Format/Info : Audio Coding 3
    Mode extension : CM (complete main)
    Codec ID : A_AC3
    Duration : 2h 30mn
    Bit rate mode : Constant
    Bit rate : 256 Kbps
    Channel(s) : 6 channels
    Channel positions : Front: L C R, Side: L R, LFE
    Sampling rate : 48.0 KHz
    Bit depth : 16 bits
    Compression mode : Lossy
    Stream size : 275 MiB (12%)












    Code:
    http://www.filesonic.com/file/4259672445/Dharam Kanta [1982] DVDRip Upscaled x264 AC3 - 6 @ Dus Release.mkv.001
    http://www.filesonic.com/file/4259676735/Dharam Kanta [1982] DVDRip Upscaled x264 AC3 - 6 @ Dus Release.mkv.002
    http://www.filesonic.com/file/4259676745/Dharam Kanta [1982] DVDRip Upscaled x264 AC3 - 6 @ Dus Release.mkv.003
    http://www.filesonic.com/file/4259707065/Dharam Kanta [1982] DVDRip Upscaled x264 AC3 - 6 @ Dus Release.mkv.004
    http://www.filesonic.com/file/4259676765/Dharam Kanta [1982] DVDRip Upscaled x264 AC3 - 6 @ Dus Release.mkv.005
    Code:
    http://filepost.com/files/m4813d69/Dharam_Kanta_[1982][email protected]_Dus_Release.mkv.001
    http://filepost.com/files/61f13e36/Dharam_Kanta_[1982][email protected]_Dus_Release.mkv.002
    http://filepost.com/files/d9682d8f/Dharam_Kanta_[1982][email protected]_Dus_Release.mkv.003
    http://filepost.com/files/85am47df/Dharam_Kanta_[1982][email protected]_Dus_Release.mkv.004
    http://filepost.com/files/daf4399c/Dharam_Kanta_[1982][email protected]_Dus_Release.mkv.005
    Code:
    http://www.fileserve.com/file/S5qftvG/Dharam Kanta [1982] DVDRip Upscaled x264 AC3 - 6 @ Dus Release.mkv.001
    http://www.fileserve.com/file/pYwJaPW/Dharam Kanta [1982] DVDRip Upscaled x264 AC3 - 6 @ Dus Release.mkv.002
    http://www.fileserve.com/file/NDYSuCm/Dharam Kanta [1982] DVDRip Upscaled x264 AC3 - 6 @ Dus Release.mkv.003
    http://www.fileserve.com/file/A9CfhRX/Dharam Kanta [1982] DVDRip Upscaled x264 AC3 - 6 @ Dus Release.mkv.004
    http://www.fileserve.com/file/SMNH5y3/Dharam Kanta [1982] DVDRip Upscaled x264 AC3 - 6 @ Dus Release.mkv.005

 

 

Posting Permissions

  • You may not post new threads
  • You may not post replies
  • You may not post attachments
  • You may not edit your posts
  •