Results 1 to 1 of 1
  1. #1
    dR Rockers www.desirulez.net
    Join Date
    Aug 2011
    Posts
    5,859

    T

    Default Deewaar (1975) - 1.36GB - 1/3 - DVDRip - XviD - 6 channels ( XMR )

    Follow us on Social Media








    XMR



    Deewaar (1975)










    Ripper : Rahul
    Source : Dus
    Complete name : Deewaar (1975)
    Format : Matroska
    File size : 1.36 GiB
    Duration : 3h 5mn
    Overall bit rate : 1 048 Kbps
    Encoded date : UTC 2011-08-17 18:31:26
    Writing application : mkvmerge v4.8.0 ('I Got The...')


    Video
    ID : 1
    Format : MPEG-4 Visual
    Format profile : Advanced [email protected]
    Format settings, BVOP : Yes
    Format settings, QPel : Yes
    Format settings, GMC : No warppoints
    Format settings, Matrix : Default (MPEG)
    Codec ID : XVID
    Codec ID/Hint : XviD
    Duration : 3h 5mn
    Bit rate : 579 Kbps
    Width : 656 pixels
    Height : 480 pixels
    Display aspect ratio : 4:3
    Frame rate : 23.976 fps
    Color space : YUV
    Chroma subsampling : 4:2:0
    Bit depth : 8 bits
    Scan type : Interlaced
    Scan order : Bottom Field First
    Compression mode : Lossy
    Bits/(Pixel*Frame) : 0.077
    Stream size : 767 MiB (55%)
    Writing library : XviD 1.2.1 (UTC 2008-12-04)

    Audio
    ID : 2
    Format : AC-3
    Format/Info : Audio Coding 3
    Mode extension : CM (complete main)
    Codec ID : A_AC3
    Duration : 3h 5mn
    Bit rate mode : Constant
    Bit rate : 448 Kbps
    Channel(s) : 6 channels
    Channel positions : Front: L C R, Side: L R, LFE
    Sampling rate : 48.0 KHz
    Bit depth : 16 bits
    Compression mode : Lossy
    Stream size : 594 MiB (43%)


    Synopsis











    Cast




















    Sample


    Give Proper Credit To Me & Team ExD | XMR | ExS


    SINGLE LINK

    Code:
    http://www.fileserve.com/file/cNyfddq/Deewaar_(1975)_DvD_-_2CD_-_Rip_-_Xvid_-__6_channels.mkv
    Code:
    http://www.filesonic.com/file/1776013904/Deewaar (1975) DvD - 2CD - Rip - Xvid -  6 channels.mkv

    450MB LINKS

    Code:
    http://www.fileserve.com/file/3r3VNU2/Deewaar_(1975)_DvD_-_2CD_-_Rip_-_Xvid_-__6_channels.mkv.001
    http://www.fileserve.com/file/RN39mEC/Deewaar_(1975)_DvD_-_2CD_-_Rip_-_Xvid_-__6_channels.mkv.002
    http://www.fileserve.com/file/JGZGtMF/Deewaar_(1975)_DvD_-_2CD_-_Rip_-_Xvid_-__6_channels.mkv.003
    http://www.fileserve.com/file/z4TJBbs/Deewaar_(1975)_DvD_-_2CD_-_Rip_-_Xvid_-__6_channels.mkv.004

 

 

Posting Permissions

  • You may not post new threads
  • You may not post replies
  • You may not post attachments
  • You may not edit your posts
  •