Results 1 to 2 of 2
  1. #1
    dR Rockers www.desirulez.net
    Join Date
    Aug 2011
    Posts
    5,859

    T

    Default Chandni (1989) DvD - 1GB - Rip - Xvid - Esub - AC3 { ExD XMR }

    Follow us on Social Media







    Chandni (1989)










    Ripper : Rahul
    Complete name : Chandni (1989)
    Format : AVI
    Format/Info : Audio Video Interleave
    File size : 1.00 GiB
    Duration : 2h 59mn
    Overall bit rate : 800 Kbps
    Writing application : VirtualDubMod 1.5.10.3 |


    Video
    ID : 0
    Format : MPEG-4 Visual
    Format profile : Advanced [email protected]
    Format settings, BVOP : 2
    Format settings, QPel : Yes
    Format settings, GMC : No warppoints
    Format settings, Matrix : Default (MPEG)
    Codec ID : XVID
    Codec ID/Hint : XviD
    Duration : 2h 59mn
    Bit rate : 663 Kbps
    Width : 640 pixels
    Height : 288 pixels
    Display aspect ratio : 2.222
    Frame rate : 23.976 fps
    Color space : YUV
    Chroma subsampling : 4:2:0
    Bit depth : 8 bits
    Scan type : Progressive
    Compression mode : Lossy
    Bits/(Pixel*Frame) : 0.150
    Stream size : 852 MiB (83%)
    Writing library : XviD 1.2.1 (UTC 2008-12-04)

    Audio
    ID : 1
    Format : AC-3
    Format/Info : Audio Coding 3
    Mode extension : CM (complete main)
    Codec ID : 2000
    Duration : 2h 59mn
    Bit rate mode : Constant
    Bit rate : 128 Kbps
    Channel(s) : 2 channels
    Channel positions : Front: L R
    Sampling rate : 48.0 KHz
    Bit depth : 16 bits
    Compression mode : Lossy
    Stream size : 164 MiB (16%)
    Alignment : Split accross interleaves
    Interleave, duration : 42 ms (1.00 video frame)
    Interleave, preload duration : 500 ms


    Synopsis





    Cast



















    Code:
    http://www.filesonic.com/file/4302144885/Chandni (1989) DvD - 1GB - Rip - Xvid - Esub - AC3  { ExD XMR }.avi
    http://www.filesonic.com/file/4302137145/Chandni (1989) DvD - 1GB - Rip - Xvid - Esub - AC3  { ExD XMR }.idx
    http://www.filesonic.com/file/4302136345/Chandni (1989) DvD - 1GB - Rip - Xvid - Esub - AC3  { ExD XMR }.sub

    Code:
    http://www.fileserve.com/file/7KMw9Bc/Chandni (1989) DvD - 1GB - Rip - Xvid - Esub - AC3  { ExD XMR }.avi
    http://www.fileserve.com/file/uVYXedz/Chandni (1989) DvD - 1GB - Rip - Xvid - Esub - AC3  { ExD XMR }.idx
    http://www.fileserve.com/file/NfgEtEZ/Chandni (1989) DvD - 1GB - Rip - Xvid - Esub - AC3  { ExD XMR }.sub
    Code:
    http://www.filejungle.com/f/afX6Bk/Chandni (1989) DvD - 1GB - Rip - Xvid - Esub - AC3  { ExD XMR }.avi
    http://www.filejungle.com/f/nHx5bV/Chandni (1989) DvD - 1GB - Rip - Xvid - Esub - AC3  { ExD XMR }.idx
    http://www.filejungle.com/f/CVwxzC/Chandni (1989) DvD - 1GB - Rip - Xvid - Esub - AC3  { ExD XMR }.sub

  2. #2
    Landed To DesiRulez www.desirulez.net
    Join Date
    Oct 2011
    Posts
    15

    T

    Default

    Can you refresh the links dead?

 

 

Posting Permissions

  • You may not post new threads
  • You may not post replies
  • You may not post attachments
  • You may not edit your posts
  •