Results 1 to 1 of 1
  1. #1
    praneeth2010
    Guest

    Cool Chachi 420 (1997) 1Cd DvdRip X264 AAC ESubs [MDG]

    Follow us on Social Media









    Cast - Kamal Hasan, Tabu, Jonny Walker, Amrish Puri, Om Puri, Ayesha Jhulka
    and Paresh Rawal.

    General
    Name : Chachi 420
    Format : MPEG-4
    Format profile : Base Media
    Codec ID : isom
    File size : 696 MiB
    Duration : 2h 38mn
    Overall bit rate : 615 Kbps


    Video
    ID : 1
    Format : AVC
    Format/Info : Advanced Video Codec
    Format profile : [email protected]
    Format settings, CABAC : Yes
    Format settings, ReFrames : 5 frames
    Codec ID : avc1
    Codec ID/Info : Advanced Video Coding
    Duration : 2h 38mn
    Bit rate mode : Variable
    Bit rate : 549 Kbps
    Maximum bit rate : 5 317 Kbps
    Width : 608 pixels
    Height : 320 pixels
    Display aspect ratio : 1.900
    Frame rate mode : Constant
    Frame rate : 23.976 fps
    Resolution : 8 bits
    Colorimetry : 4:2:0
    Scan type : Progressive
    Bits/(Pixel*Frame) : 0.118
    Stream size : 620 MiB (89%)
    Title : Imported with GPAC 0.4.6-DEV (build 1)
    Writing library : x264 core 80 r1376M 3feaec2


    Audio
    ID : 2
    Format : AAC
    Format/Info : Advanced Audio Codec
    Format version : Version 4
    Format profile : LC
    Format settings, SBR : Yes
    Format settings, PS : No
    Codec ID : 40
    Duration : 2h 38mn
    Bit rate mode : Variable
    Bit rate : 64.0 Kbps
    Maximum bit rate : 69.9 Kbps
    Channel(s) : 2 channels
    Channel positions : Front: L R
    Sampling rate : 44.1 KHz
    Stream size : 72.4 MiB (10%)


    Source : DVD 9
    Ripper : Nordmariner
    Credits To :-

    Uploaded By :- Team SD




    Filefactory Links:

    Code:
    http://www.filefactory.com/file/c30304d/n/Chachi.420.1Cd.DvdRip.X264.AAC.ESubs.By.Team.SD.mp4
    
    SUBS:
    http://www.filefactory.com/file/c30303e/n/Chachi.420.1Cd.DvdRip.X264.AAC.ESubs.By.Team.SD.srt
    Fooget Links:

    Code:
    http://fooget.com/av6ozwypmscv.html
    
    SUBS:
    http://fooget.com/i7sur359arzy.html
    Uploaded.to Links:

    Code:
    http://ul.to/adjupt3x
    
    SUBS:
    http://ul.to/gqmlg0fu


 

 

Posting Permissions

  • You may not post new threads
  • You may not post replies
  • You may not post attachments
  • You may not edit your posts
  •