Results 1 to 1 of 1
  1. #1
    Super Member www.desirulez.net
    Join Date
    Aug 2011
    Posts
    385

    T

    Post Chaalbaaz (1989) - 1.37GB - 2CD - DVDRip - XViD - 6 Channels - ESubs - {ExD|XMR}

    Follow us on Social Media







    Chaalbaaz (1989) - 1.37GB - 2CD - DVDRip - XViD - 6 Channels - ESubs - {ExD|XMR}



    *File Info*


    Format : AVI
    Format/Info : Audio Video Interleave
    File size : 1.37 GiB
    Duration : 2h 30mn
    Overall bit rate : 1 302 Kbps
    Writing application : VirtualDubMod 1.5.10.2 (build 2542/release)
    Writing library : VirtualDubMod build 2542/release

    Video
    ID : 0
    Format : MPEG-4 Visual
    Format profile : Advanced [email protected]
    Format settings, BVOP : 2
    Format settings, QPel : Yes
    Format settings, GMC : No warppoints
    Format settings, Matrix : Custom
    Codec ID : XVID
    Codec ID/Hint : XviD
    Duration : 2h 30mn
    Bit rate : 1 069 Kbps
    Width : 608 pixels
    Height : 336 pixels
    Display aspect ratio : 16:9
    Frame rate : 23.976 fps
    Color space : YUV
    Chroma subsampling : 4:2:0
    Bit depth : 8 bits
    Scan type : Progressive
    Compression mode : Lossy
    Bits/(Pixel*Frame) : 0.218
    Stream size : 1.12 GiB (82%)
    Writing library : XviD 1.2.1 (UTC 2008-12-04)

    Audio
    ID : 1
    Format : AC-3
    Format/Info : Audio Coding 3
    Mode extension : CM (complete main)
    Codec ID : 2000
    Duration : 2h 30mn
    Bit rate mode : Constant
    Bit rate : 224 Kbps
    Channel(s) : 6 channels
    Channel positions : Front: L C R, Side: L R, LFE
    Sampling rate : 48.0 KHz
    Bit depth : 16 bits
    Compression mode : Lossy
    Stream size : 241 MiB (17%)
    Alignment : Split accross interleaves
    Interleave, duration : 42 ms (1.00 video frame)
    Interleave, preload duration : 500 ms


    Source DVD9
    Subtitle English


    *Movie Info*

    Code:
    http://www.imdb.com/title/tt0122427/
    *Screenshots*












    SINGLE LINK

    Code:
    http://www.filesonic.com/file/4107619245/Chaalbaaz 2CD XViD -=XMR=-.avi
    Code:
    http://filepost.com/files/2b9b5928/Chaalbaaz_2CD_XViD_-=XMR=-.avi

    Code:
    http://www.filesonic.com/file/4107605125/Chaalbaaz 2CD XViD -=XMR=-.avi.001
    http://www.filesonic.com/file/4107619705/Chaalbaaz 2CD XViD -=XMR=-.avi.002
    http://www.filesonic.com/file/4107606995/Chaalbaaz 2CD XViD -=XMR=-.avi.003
    http://www.filesonic.com/file/4107841855/Chaalbaaz 2CD XViD -=XMR=-.avi.004
    http://www.filesonic.com/file/4107753505/Chaalbaaz 2CD XViD -=XMR=-.srt
    Code:
    http://filepost.com/files/6cbc2m8b/Chaalbaaz_2CD_XViD_-=XMR=-.avi.001
    http://filepost.com/files/c26961a6/Chaalbaaz_2CD_XViD_-=XMR=-.avi.002
    http://filepost.com/files/a131ce64/Chaalbaaz_2CD_XViD_-=XMR=-.avi.003
    http://filepost.com/files/6248aa86/Chaalbaaz_2CD_XViD_-=XMR=-.avi.004
    http://filepost.com/files/33m2cf4e/Chaalbaaz_2CD_XViD_-=XMR=-.srt

 

 

Posting Permissions

  • You may not post new threads
  • You may not post replies
  • You may not post attachments
  • You may not edit your posts
  •