Results 1 to 1 of 1
  1. #1
    dR Contributor www.desirulez.net
    Join Date
    Mar 2010
    Posts
    2,245

    T

    Smile Boond Jo Ban Gayi Moti (1967) 1/4DvDRip XviD AC3

    Follow us on Social Media







    Boond Jo Ban Gayi Moti (1967) 14DvDRip XviD AC3







    Format : AVI
    Format/Info : Audio Video Interleave
    Format profile : OpenDML
    File size : 1.09 GiB
    Duration : 2h 35mn
    Overall bit rate : 999 Kbps
    Writing application : AVI-Mux GUI 1.17.7, Aug 8 2006 20:59:17

    Video
    Format : MPEG-4 Visual
    Format profile : Streaming [email protected]
    Format settings, BVOP : Yes
    Format settings, QPel : No
    Format settings, GMC : No warppoints
    Format settings, Matrix : Default (H.263)
    Codec ID : XVID
    Codec ID/Hint : XviD
    Duration : 2h 35mn
    Bit rate : 865 Kbps
    Width : 672 pixels
    Height : 464 pixels
    Display aspect ratio : 4/3
    Frame rate : 29.970 fps
    Resolution : 24 bits
    Colorimetry : 4:2:0
    Scan type : Progressive
    Bits/(Pixel*Frame) : 0.093
    Stream size : 963 MiB (87%)
    Writing library : XviD 1.2.1 (UTC 2008-12-04)

    Audio
    Format : AC-3
    Format/Info : Audio Coding 3
    Codec ID : 2000
    Duration : 2h 35mn
    Bit rate mode : Constant
    Bit rate : 128 Kbps
    Channel(s) : 6 channels
    Channel positions : Front: L C R, Surround: L R, LFE
    Sampling rate : 48.0 KHz
    Stream size : 142 MiB (13%)
    Alignment : Aligned on interleaves
    Interleave, duration : 64 ms (1.92 video frames)
    Interleave, preload duration : 192 ms
    Title : VTS_10_1 T801 3_2ch 448Kbps DELAY 0ms















    Credit To Orignal Sharer


    Code:
    http://rapidshare.com/files/392494533/Boond_Jo_Ban_Gaye_Moti.DvdRip.By.Kamran444.avi.001
    http://rapidshare.com/files/392494665/Boond_Jo_Ban_Gaye_Moti.DvdRip.By.Kamran444.avi.002
    http://rapidshare.com/files/392494606/Boond_Jo_Ban_Gaye_Moti.DvdRip.By.Kamran444.avi.003
    http://rapidshare.com/files/392494559/Boond_Jo_Ban_Gaye_Moti.DvdRip.By.Kamran444.avi.004
    http://rapidshare.com/files/392494614/Boond_Jo_Ban_Gaye_Moti.DvdRip.By.Kamran444.avi.005
    http://rapidshare.com/files/392494923/Boond_Jo_Ban_Gaye_Moti.DvdRip.By.Kamran444.avi.006



 

 

Posting Permissions

  • You may not post new threads
  • You may not post replies
  • You may not post attachments
  • You may not edit your posts
  •