Results 1 to 1 of 1
  1. #1
    dR Rockers www.desirulez.net
    Join Date
    Aug 2011
    Posts
    5,859

    T

    Default Beta (1992) - 1.36GB - 1/3 - DVDRip - X264 - Ac3 - [TDBB]

    Follow us on Social Media










    Beta (1992) 2 CD DVD Rip X264 Ac3 Adi Jawed [TDBB]












    Code:
    General
    Complete name                            : Beta (1992) 2 CD DVD Rip X264 Ac3 Adi Jawed [TDBB]
    Format                                   : Matroska
    Format version                           : Version 2
    File size                                : 1.36 GiB
    Duration                                 : 2h 44mn
    Overall bit rate                         : 1 184 Kbps
    Sourc                                    : DVD 9 TDBB
    Ripper                                   : Adi Jawed
    
    Video
    ID                                       : 1
    Format                                   : AVC
    Format/Info                              : Advanced Video Codec
    Format profile                           : [email protected]
    Format settings, CABAC                   : Yes
    Format settings, ReFrames                : 4 frames
    Codec ID                                 : V_MPEG4/ISO/AVC
    Duration                                 : 2h 44mn
    Bit rate                                 : 1 054 Kbps
    Width                                    : 720 pixels
    Height                                   : 304 pixels
    Display aspect ratio                     : 2.35:1
    Frame rate                               : 23.976 fps
    Color space                              : YUV
    Chroma subsampling                       : 4:2:0
    Bit depth                                : 8 bits
    Scan type                                : Progressive
    Bits/(Pixel*Frame)                       : 0.201
    Stream size                              : 1.18 GiB (87%)
    
    Audio
    ID                                       : 2
    Format                                   : AC-3
    Format/Info                              : Audio Coding 3
    Mode extension                           : CM (complete main)
    Codec ID                                 : A_AC3
    Duration                                 : 2h 44mn
    Bit rate mode                            : Constant
    Bit rate                                 : 128 Kbps
    Channel(s)                               : 6 channels
    Channel positions                        : Front: L C R, Side: L R, LFE
    Sampling rate                            : 48.0 KHz
    Bit depth                                : 16 bits
    Compression mode                         : Lossy
    Stream size                              : 150 MiB (11%)



























    SINGLE LINK



    Code:
    http://www.fileserve.com/file/pYGvEqy/Beta (1992) 2 CD DVD Rip X264 Ac3 Adi Jawed [TDBB].mkv

    Code:
    http://www.filesonic.com/file/2586319221/Beta (1992) 2 CD DVD Rip X264 Ac3 Adi Jawed [TDBB].mkv

    Code:
    http://www.wupload.com/file/428608173/Beta (1992) 2 CD DVD Rip X264 Ac3 Adi Jawed [TDBB].mkv

    450MB LINKS


    Code:
    http://www.fileserve.com/file/xPSjuB9/Beta (1992) 2 CD DVD Rip X264 Ac3 Adi Jawed [TDBB].mkv.001
    http://www.fileserve.com/file/qEM2r3R/Beta (1992) 2 CD DVD Rip X264 Ac3 Adi Jawed [TDBB].mkv.002
    http://www.fileserve.com/file/fVfTHRJ/Beta (1992) 2 CD DVD Rip X264 Ac3 Adi Jawed [TDBB].mkv.003
    http://www.fileserve.com/file/aP65Jbb/Beta (1992) 2 CD DVD Rip X264 Ac3 Adi Jawed [TDBB].mkv.004
    
    
    
    
    
    http://www.filesonic.com/file/2586306741/Beta (1992) 2 CD DVD Rip X264 Ac3 Adi Jawed [TDBB].mkv.001
    http://www.filesonic.com/file/2586307001/Beta (1992) 2 CD DVD Rip X264 Ac3 Adi Jawed [TDBB].mkv.002
    http://www.filesonic.com/file/2586370041/Beta (1992) 2 CD DVD Rip X264 Ac3 Adi Jawed [TDBB].mkv.003
    http://www.filesonic.com/file/2586305401/Beta (1992) 2 CD DVD Rip X264 Ac3 Adi Jawed [TDBB].mkv.004
    
    
    
    http://www.wupload.com/file/428604740/Beta (1992) 2 CD DVD Rip X264 Ac3 Adi Jawed [TDBB].mkv.001
    http://www.wupload.com/file/428601078/Beta (1992) 2 CD DVD Rip X264 Ac3 Adi Jawed [TDBB].mkv.002
    http://www.wupload.com/file/428604510/Beta (1992) 2 CD DVD Rip X264 Ac3 Adi Jawed [TDBB].mkv.003
    http://www.wupload.com/file/428601100/Beta (1992) 2 CD DVD Rip X264 Ac3 Adi Jawed [TDBB].mkv.004


 

 

Posting Permissions

  • You may not post new threads
  • You may not post replies
  • You may not post attachments
  • You may not edit your posts
  •