Results 1 to 1 of 1
  1. #1
    Banned www.desirulez.net
    Join Date
    Jan 2010
    Posts
    2,522

    T

    Thumbs up Amar Akbar Anthony{1979} - 1CD Dvdrip - x264 -

    Follow us on Social Media







    Amar Akbar Anthony{1979} - 1CD Dvdrip - x264 -




    General

    Format : Matroska
    File size : 700 MiB
    Duration : 2h 54mn
    Overall bit rate : 560 Kbps

    Video
    Format : AVC
    Format/Info : Advanced Video Codec
    Format profile : [email protected]
    Format settings, CABAC : Yes
    Format settings, ReFrames : 4 frames
    Muxing mode : Container [email protected]
    Codec ID : V_MPEG4/ISO/AVC
    Duration : 2h 54mn
    Bit rate : 462 Kbps
    Width : 640 pixels
    Height : 480 pixels
    Display aspect ratio : 4:3
    Frame rate : 23.976 fps
    Color space : YUV
    Chroma subsampling : 4:2:0
    Bit depth : 8 bits
    Scan type : Progressive
    Bits/(Pixel*Frame) : 0.063
    Stream size : 566 MiB (81%)
    Writing library : x264 core 98 r1649 c54c47d

    Audio
    Format : AC-3
    Format/Info : Audio Coding 3
    Mode extension : CM (complete main)
    Codec ID : A_AC3
    Duration : 2h 54mn
    Bit rate mode : Constant
    Bit rate : 96.0 Kbps
    Channel(s) : 2 channels
    Channel positions : Front: L R
    Sampling rate : 48.0 KHz
    Stream size : 120 MiB (17%)
    Language : Hindi




    Subtitles: English Muxed















    400MB Links



    Code:
    http://www.fileserve.com/file/ZcSEzHK/Amar.Akbar.Anthony.1979.DVDRIP.1CD.By.Deejam.part1.rar
    http://www.fileserve.com/file/8T9supe/Amar.Akbar.Anthony.1979.DVDRIP.1CD.By.Deejam.part2.rar

    OR

    Code:
    http://www.filesonic.com/file/69503729/Amar.Akbar.Anthony.1979.DVDRIP.1CD.By.Deejam.part1.rar
    http://www.filesonic.com/file/69503703/Amar.Akbar.Anthony.1979.DVDRIP.1CD.By.Deejam.part2.rar
    OR


    Code:
    http://hotfile.com/dl/100497540/722838b/Amar.Akbar.Anthony.1979.DVDRIP.1CD.By.Deejam.part1.rar.html
    http://hotfile.com/dl/100497378/52fcc17/Amar.Akbar.Anthony.1979.DVDRIP.1CD.By.Deejam.part2.rar.html


 

 

Posting Permissions

  • You may not post new threads
  • You may not post replies
  • You may not post attachments
  • You may not edit your posts
  •