Results 1 to 1 of 1
  1. #1
    Senior Member www.desirulez.net
    Join Date
    Dec 2011
    Posts
    117

    T

    Exclamation Agneepath_1990_DVDRip_XVID_MP3_Subs_Alice_TDBB

    Follow us on Social Media







    Code:
    Source: Own TDBB Sony DVD-9 original! Uncut version!
    
    Format                           : AVI
    Format/Info                      : Audio Video Interleave
    File size                        : 698 MiB
    
    Video
    ID                               : 0
    Format                           : MPEG-4 Visual
    Format profile                   : Advanced [email protected]
    Format settings, BVOP            : 1
    Format settings, QPel            : No
    Format settings, GMC             : No warppoints
    Format settings, Matrix          : Custom
    Codec ID                         : XVID
    Codec ID/Hint                    : XviD
    Bit rate                         : 510 Kbps
    Width                            : 656 pixels
    Height                           : 352 pixels
    Display aspect ratio             : 1.864
    Frame rate                       : 25.000 fps
    Color space                      : YUV
    Chroma subsampling               : 4:2:0
    Bit depth                        : 8 bits
    Scan type                        : Progressive
    Compression mode                 : Lossy
    Bits/(Pixel*Frame)               : 0.088
    Stream size                      : 610 MiB (87%)
    Writing library                  : XviD 63
    
    Audio
    ID                               : 1
    Format                           : MPEG Audio
    Format version                   : Version 2
    Format profile                   : Layer 3
    Mode                             : Joint stereo
    Mode extension                   : MS Stereo
    Codec ID                         : 55
    Codec ID/Hint                    : MP3
    Bit rate mode                    : Variable
    Bit rate                         : 64.0 Kbps
    Channel(s)                       : 2 channels
    Sampling rate                    : 24.0 KHz
    Compression mode                 : Lossy
    Stream size                      : 73.0 MiB (10%)
    Alignment                        : Aligned on interle
    Screen Shots








    Single links(700mb)
    Code:
    http://www.filesonic.com/file/4177597795/Agneepath_1990_DVDRip_XVID_MP3_Subs_Alice_TDBB_By.PlaBon.avi
    
    http://www.fileserve.com/file/rDSf8Dz/Agneepath_1990_DVDRip_XVID_MP3_Subs_Alice_TDBB_By.PlaBon.avi
    
    Resumable Filefactory
    
    http://www.filefactory.com/file/c0b0c84/n/Agneepath_1990_DVDRip_XVID_MP3_Subs_Alice_TDBB_By.PlaBon.avi

 

 

Posting Permissions

  • You may not post new threads
  • You may not post replies
  • You may not post attachments
  • You may not edit your posts
  •