Results 1 to 1 of 1
  1. #1
    Banned www.desirulez.net
    Join Date
    Jan 2010
    Posts
    2,522

    T

    Thumbs up Abdullah (1980) 2CD XViD 6 Channels AC3 ESubs

    Follow us on Social Media







    Abdullah (1980) 2CD XViD 6 Channels AC3 ESubs




    *File Info*

    Format : AVI
    Format/Info : Audio Video Interleave
    File size : 1.37 GiB
    Duration : 2h 16mn
    Overall bit rate : 1 440 Kbps
    Writing application : VirtualDubMod 1.5.10.2 (build 2542/release)
    Writing library : VirtualDubMod build 2542/release

    Video
    ID : 0
    Format : MPEG-4 Visual
    Format profile : [email protected]
    Format settings, BVOP : Yes
    Format settings, QPel : Yes
    Format settings, GMC : No warppoints
    Format settings, Matrix : Default (MPEG)
    Codec ID : XVID
    Codec ID/Hint : XviD
    Duration : 2h 16mn
    Bit rate : 1 239 Kbps
    Width : 640 pixels
    Height : 480 pixels
    Display aspect ratio : 4:3
    Frame rate : 23.976 fps
    Resolution : 24 bits
    Colorimetry : 4:2:0
    Scan type : Progressive
    Bits/(Pixel*Frame) : 0.168
    Stream size : 1.18 GiB (86%)
    Writing library : XviD 1.2.1 (UTC 2008-12-04)

    Audio
    ID : 1
    Format : AC-3
    Format/Info : Audio Coding 3
    Codec ID : 2000
    Duration : 2h 16mn
    Bit rate mode : Constant
    Bit rate : 192 Kbps
    Channel(s) : 6 channels
    Channel positions : Front: L C R, Surround: L R, LFE
    Sampling rate : 48.0 KHz
    Stream size : 187 MiB (13%)
    Alignment : Split accross interleaves
    Interleave, duration : 42 ms (1.00 video frame)
    Interleave, preload duration : 500 ms
















    Code:
    http://www.fileserve.com/file/yzb59Ya/Abdullah.1980.2CD.XViD.6.Channels.AC3.ESubs.By.Deejam.part1.rar
    http://www.fileserve.com/file/7QdVDc6/Abdullah.1980.2CD.XViD.6.Channels.AC3.ESubs.By.Deejam.part2.rar
    http://www.fileserve.com/file/XzgyNmE/Abdullah.1980.2CD.XViD.6.Channels.AC3.ESubs.By.Deejam.part3.rar
    http://www.fileserve.com/file/kCQ4A4C/Abdullah.1980.2CD.XViD.6.Channels.AC3.ESubs.By.Deejam.part4.rar

    Code:
    http://www.filesonic.com/file/73301981/Abdullah.1980.2CD.XViD.6.Channels.AC3.ESubs.By.Deejam.part1.rar
    http://www.filesonic.com/file/73300349/Abdullah.1980.2CD.XViD.6.Channels.AC3.ESubs.By.Deejam.part2.rar
    http://www.filesonic.com/file/73302393/Abdullah.1980.2CD.XViD.6.Channels.AC3.ESubs.By.Deejam.part3.rar
    http://www.filesonic.com/file/73301825/Abdullah.1980.2CD.XViD.6.Channels.AC3.ESubs.By.Deejam.part4.rar

    Code:
    http://hotfile.com/dl/101190111/92dbb49/Abdullah.1980.2CD.XViD.6.Channels.AC3.ESubs.By.Deejam.part1.rar.html
    http://hotfile.com/dl/101190163/3ea43ae/Abdullah.1980.2CD.XViD.6.Channels.AC3.ESubs.By.Deejam.part2.rar.html
    http://hotfile.com/dl/101190321/aaf40d7/Abdullah.1980.2CD.XViD.6.Channels.AC3.ESubs.By.Deejam.part3.rar.html
    http://hotfile.com/dl/101189927/a312b56/Abdullah.1980.2CD.XViD.6.Channels.AC3.ESubs.By.Deejam.part4.rar.html








 

 

Posting Permissions

  • You may not post new threads
  • You may not post replies
  • You may not post attachments
  • You may not edit your posts
  •