Results 1 to 1 of 1
  1. #1

    Wink Tandoori Love [2008] - 400MB - PDVDRiP- Xvid - Mp3

    Follow us on Social Media







    Tandoori Love [2008] - 400MB - PDVDRiP- Xvid - Mp3































    Code:
    Video
    Format                           : MPEG-4 Visual
    Format profile                   : Streaming [email protected]
    Format settings, BVOP            : Yes
    Format settings, QPel            : No
    Format settings, GMC             : No warppoints
    Format settings, Matrix          : Default
    Muxing mode                      : Packed bitstream
    Codec ID                         : XVID
    Codec ID/Hint                    : XviD
    Duration                         : 1h 32mn
    Bit rate                         : 499 Kbps
    Width                            : 624 pixels
    Height                           : 272 pixels
    Display aspect ratio             : 2.25
    Frame rate                       : 23.976 fps
    Resolution                       : 24 bits
    Colorimetry                      : 4:2:0
    Scan type                        : Progressive
    Bits/(Pixel*Frame)               : 0.123
    Stream size                      : 329 MiB (79%)
    Writing library                  : XviD 1.2.1 (UTC 2008-12-04)
    
    Audio
    Format                           : MPEG Audio
    Format version                   : Version 1
    Format profile                   : Layer 3
    Codec ID                         : 55
    Codec ID/Hint                    : MP3
    Duration                         : 1h 32mn
    Bit rate mode                    : Variable
    Bit rate                         : 118 Kbps
    Minimum bit rate                 : 128 Kbps
    Channel(s)                       : 2 channels
    Sampling rate                    : 48.0 KHz
    Resolution                       : 16 bits
    Stream size                      : 77.6 MiB (19%)
    Alignment                        : Aligned on interleaves
    Interleave, duration             : 24 ms (0.58 video frame)
    Interleave, preload duration     : 551 ms
    Writing library                  : LAME3.98r
    Encoding settings                : ABR
    
    *Always credits goes to original ripper...

    IMDB LINK:
    Code:
    http://www.imdb.com/title/tt1087526/



    Rapidshare:
    Code:
    http://rapidshare.com/files/218559810/T__L__D400-By_Shakil-Team_Sparkar.avi.001
    http://rapidshare.com/files/218559963/T__L__D400-By_Shakil-Team_Sparkar.avi.002
    http://rapidshare.com/files/218559530/T__L__D400-By_Shakil-Team_Sparkar.avi.003
    Hotfile:
    Code:
    http://hotfile.com/dl/143862/67ca037/T__L__D400-By_Shakil-Team_Sparkar.avi.001.html
    http://hotfile.com/dl/143870/e410c8f/T__L__D400-By_Shakil-Team_Sparkar.avi.002.html
    http://hotfile.com/dl/143872/b18939a/T__L__D400-By_Shakil-Team_Sparkar.avi.003.html
    Depositfiles:
    Code:
    http://depositfiles.com/files/b7px3v8bp
    2shared:
    Code:
    http://www.2shared.com/file/5275235/e925ee8b/T__L__D400-By_Shakil-Team_Sparkar.html
    
    Pass= ts

 

 

Posting Permissions

  • You may not post new threads
  • You may not post replies
  • You may not post attachments
  • You may not edit your posts
  •