Results 1 to 2 of 2
  1. #1

    Cool London Dreams 2009 1/3 DVDRip XviD Ac3 6Channel Audio

    Follow us on Social Media







    London Dreams 2009 1/3 DVDRip XviD Ac3 6Channel Audio

    Caps






    Source: DVD9 @ DUS


    Info

    Code:
    Frame rate : 23.976 fps
    Resolution : 24 bits
    Colorimetry : 4:2:0
    Scan type : Progressive
    Bits/(Pixel*Frame) : 0.234
    Stream size : 1.31 GiB (90%)
    
    Audio
    Format : AC-3
    Format/Info : Audio Coding 3
    Codec ID : 2000
    Duration : 2h 32mn
    Bit rate mode : Constant
    Bit rate : 128 Kbps
    Channel(s) : 6 channels
    Channel positions : Front: L C R, Surround: L R, LFE
    Sampling rate : 48.0 KHz
    Stream size : 140 MiB (9%)
    Alignment : Aligned on interleaves
    Interleave, duration : 64 ms (1.53 video frames)
    Interleave, preload duration : 192 ms
    Title : Desi Unit Share

    Download
    Code:
    http://rapidshare.com/files/321724242/London_Dreams-By_ROCKY.avi.001
    http://rapidshare.com/files/321724102/London_Dreams-By_ROCKY.avi.002
    http://rapidshare.com/files/321723281/London_Dreams-By_ROCKY.avi.003
    http://rapidshare.com/files/321699629/London_Dreams-By_ROCKY.avi.004
    http://rapidshare.com/files/321701992/London_Dreams-By_ROCKY.avi.005
    http://rapidshare.com/files/321698678/London_Dreams-By_ROCKY.avi.006
    http://rapidshare.com/files/321700151/London_Dreams-By_ROCKY.avi.007
    http://rapidshare.com/files/321699515/London_Dreams-By_ROCKY.avi.008

  2. #2
    New Arrivals
    Join Date
    Dec 2009
    Posts
    1

    T

    Default

    can smone plzz tell me how to download ths movie......

 

 

Posting Permissions

  • You may not post new threads
  • You may not post replies
  • You may not post attachments
  • You may not edit your posts
  •