Results 1 to 1 of 1
  1. #1

    Cool EK SE BURE DO 2009 1CD PDVD x264 AAC MP4 350MB

    Follow us on Social Media







    EK SE BURE DO 2009 1CD PDVD x264 AAC MP4 350MB


    Code:
    GENERAL
    Complete name                    : EK SE BURE DO.{2009}.{ 350 MB }.1.CD-PDVD.x264.AAC.MP4-SHARARATi2000.mp4
    Format                           : MPEG-4
    Format profile                   : Base Media
    Codec ID                         : isom
    File size                        : 350 MiB
    Duration                         : 1h 40mn
    Overall bit rate                 : 488 Kbps
    
    
    VIDEO
    ID                               : 1
    Format                           : AVC
    Format/Info                      : Advanced Video Codec
    Format profile                   : [email protected]
    Format settings, CABAC           : No
    Format settings, ReFrames        : 2 frames
    Codec ID                         : avc1
    Codec ID/Info                    : Advanced Video Coding
    Duration                         : 1h 40mn
    Bit rate mode                    : Variable
    Bit rate                         : 408 Kbps
    Maximum bit rate                 : 1 372 Kbps
    Width                            : 432 pixels
    Height                           : 176 pixels
    Display aspect ratio             : 2.455
    Frame rate mode                  : Constant
    Frame rate                       : 23.976 fps
    Resolution                       : 24 bits
    Colorimetry                      : 4:2:0
    Scan type                        : Progressive
    Bits/(Pixel*Frame)               : 0.224
    Stream size                      : 293 MiB (84%)
    Title                            : Video
    Writing library                  : x264 core
    
    
    AUDIO
    ID                               : 2
    Format                           : AAC
    Format/Info                      : Advanced Audio Codec
    Format version                   : Version 4
    Format profile                   : LC
    Format settings, SBR             : Yes
    Format settings, PS              : No
    Codec ID                         : 40
    Duration                         : 1h 40mn
    Bit rate mode                    : Variable
    Bit rate                         : 76.8 Kbps
    Maximum bit rate                 : 87.8 Kbps
    Channel(s)                       : 2 channels
    Channel positions                : L R
    Sampling rate                    : 44.1 KHz
    Resolution                       : 16 bits
    Stream size                      : 55.1 MiB




    Uploader-BISWA(ME)
    Credit goes to original ripper

    Rapidshare
    Code:
    http://rapidshare.com/files/221478758/Ek.Se.Bure.Do.350MB.x264.By_BISWA.mp4.001
    http://rapidshare.com/files/221478671/Ek.Se.Bure.Do.350MB.x264.By_BISWA.mp4.002
    Netload
    Code:
    http://netload.in/dateiEFTs3OEHwX/Ek.Se.Bure.Do.350MB.x264.By_BISWA.mp4.001.htm
    http://netload.in/dateiRZYtkBg5lp/Ek.Se.Bure.Do.350MB.x264.By_BISWA.mp4.002.htm

 

 

Posting Permissions

  • You may not post new threads
  • You may not post replies
  • You may not post attachments
  • You may not edit your posts
  •