Results 1 to 1 of 1
  1. #1
    dR Contributor www.desirulez.net
    Join Date
    Sep 2009
    Posts
    305

    T

    Default De Dana Dan (2009) 1/3 DVDRip*AC3*XviD*SuB

    Follow us on Social Media










    De Dana Dan (2009) 1/3 DVDRip*AC3*XviD*SuB (Dus)











    Banner
    Venus Records and Tapes
    Eros Entertainment
    Baba Arts Limited Production

    Status
    Released

    Color
    C

    Release Date
    November 27, 2009

    Language
    Hindi

    Genre
    Comedy

    Shooting Studios
    Filmcity
    Mehboob Studio

    Producer
    Ganesh Jain
    Girish Jain
    Ratan Jain

    Executive Producer / Co-Producer
    Sanchita Chatterjee
    Sunil A. Lulla

    Director
    Priyadarshan

    Star Cast
    Akshay Kumar...... Nitin Bankar
    Katrina Kaif...... Anjali Kakkad
    Sunil Shetty...... Ram Mishra
    Paresh Rawal...... Harbans Chadda
    Neha Dhupia
    Sameera Reddy...... Manpreet Oberoi
    Archana Puran Singh...... Archana
    Aditi Govitrikar
    Asrani
    Chunky Pandey...... Harbans' son
    Johny Lever
    Manoj Joshi
    Rajpal Yadav
    Supriya Karnik
    Tinu Anand
    Vikram Gokhale
    Sharat Saxena
    Himani Shivpuri
    Shakti Kapoor
    Ratan Jain

    Cassettes and CD's on
    Venus Records & Tapes

    Singers
    Rahat Fateh Ali Khan
    Suzanne D'Mello
    Rdb
    Javed Ali
    Mika Singh
    Style Bhai
    Dominique Cerejo
    Sunidhi Chauhan
    Ad Boys

    Lyricist
    Sayeed Qadri
    Rdb
    Ashiesh Pandit
    Irshad Kamil
    Sameer

    Music Director
    Pritam Chakraborty
    Rdb
    Ad Boys

    Background Music
    Salim Merchant
    Sulaiman Merchant

    Choreography
    Ganesh Acharya
    Pony Verma
    Prasanna

    Art
    Sabu Cyril

    Editor
    Arun Kumar

    Sound
    Rishi Oberoi

    Media Relations
    Spice

    Publicity Designs
    Himanshu Nanda
    Rahul Nanda














    Code:
    
    
    .. K i n g o f M o v i e   ..   P r a u d l e y p r e g a n t s ..
    
    
    General
    
    Format                           : AVI
    Format/Info                      : Audio Video Interleave
    File size                        : 1.46 GiB
    Duration                         : 2h 47mn
    Overall bit rate                 : 1 246 Kbps
    Writing application              : VirtualDubMod 1.5.10.1 (build 2366/release)
    Writing library                  : VirtualDubMod build 2366/release
    
    Video
    ID                               : 0
    Format                           : MPEG-4 Visual
    Format profile                   : [email protected]
    Format settings, BVOP            : Yes
    Format settings, QPel            : No
    Format settings, GMC             : No warppoints
    Format settings, Matrix          : Default (H.263)
    Codec ID                         : XVID
    Codec ID/Hint                    : XviD
    Duration                         : 2h 47mn
    Bit rate                         : 1 044 Kbps
    Width                            : 720 pixels
    Height                           : 304 pixels
    Display aspect ratio             : 2.35:1
    Frame rate                       : 23.976 fps
    Resolution                       : 24 bits
    Colorimetry                      : 4:2:0
    Scan type                        : Progressive
    Bits/(Pixel*Frame)               : 0.199
    Stream size                      : 1.22 GiB (84%)
    Writing library                  : XviD 1.2.1 (UTC 2008-12-04)
    
    Audio
    ID                               : 1
    Format                           : AC-3
    Format/Info                      : Audio Coding 3
    Codec ID                         : 2000
    Duration                         : 2h 47mn
    Bit rate mode                    : Constant
    Bit rate                         : 192 Kbps
    Channel(s)                       : 2 channels
    Channel positions                : L R
    Sampling rate                    : 48.0 KHz
    Stream size                      : 230 MiB (15%)
    Alignment                        : Split accross interleaves
    Interleave, duration             : 42 ms (1.00 video frame)
    Interleave, preload duration     : 500 ms
    
    
    
    
    
     
                                                                                   
    
    

    Credit To Ripper - Dus













    Code:
    http://rapidshare.com/files/333581762/King.Of.Movie.D.D.Dan.2009.2CD.OrignalDVDRip.XviD.AC3.Sub.avi.001
    http://rapidshare.com/files/333583424/King.Of.Movie.D.D.Dan.2009.2CD.OrignalDVDRip.XviD.AC3.Sub.avi.002
    http://rapidshare.com/files/333584594/King.Of.Movie.D.D.Dan.2009.2CD.OrignalDVDRip.XviD.AC3.Sub.avi.003
    http://rapidshare.com/files/333579751/King.Of.Movie.D.D.Dan.2009.2CD.OrignalDVDRip.XviD.AC3.Sub.avi.004
    http://rapidshare.com/files/333586712/King.Of.Movie.D.D.Dan.2009.2CD.OrignalDVDRip.XviD.AC3.Sub.avi.005
    http://rapidshare.com/files/333583491/King.Of.Movie.D.D.Dan.2009.2CD.OrignalDVDRip.XviD.AC3.Sub.avi.006
    http://rapidshare.com/files/333583627/King.Of.Movie.D.D.Dan.2009.2CD.OrignalDVDRip.XviD.AC3.Sub.avi.007
    http://rapidshare.com/files/333581497/King.Of.Movie.D.D.Dan.2009.2CD.OrignalDVDRip.XviD.AC3.Sub.avi.008
    http://rapidshare.com/files/333580135/King.Of.Movie.D.D.Dan.2009.2CD.OrignalDVDRip.XviD.AC3.Sub.avi.009
    http://rapidshare.com/files/333580174/King.Of.Movie.D.D.Dan.2009.2CD.OrignalDVDRip.XviD.AC3.Sub.avi.010
    
    Sub
    http://rapidshare.com/files/333581141/King.Of.Movie.D.D.Dan.2009.2CD.OrignalDVDRip.XviD.AC3.Sub.srt




    Code:
    http://hotfile.com/dl/23747670/e921662/King.Of.Movie.D.D.Dan.2009.2CD.OrignalDVDRip.XviD.AC3.Sub.avi.001.html
    http://hotfile.com/dl/23748263/3648ae9/King.Of.Movie.D.D.Dan.2009.2CD.OrignalDVDRip.XviD.AC3.Sub.avi.002.html
    http://hotfile.com/dl/23747697/f66f730/King.Of.Movie.D.D.Dan.2009.2CD.OrignalDVDRip.XviD.AC3.Sub.avi.003.html
    http://hotfile.com/dl/23748233/62677b7/King.Of.Movie.D.D.Dan.2009.2CD.OrignalDVDRip.XviD.AC3.Sub.avi.004.html
    http://hotfile.com/dl/23747801/e980ef2/King.Of.Movie.D.D.Dan.2009.2CD.OrignalDVDRip.XviD.AC3.Sub.avi.005.html
    http://hotfile.com/dl/23748586/2f26839/King.Of.Movie.D.D.Dan.2009.2CD.OrignalDVDRip.XviD.AC3.Sub.avi.006.html
    http://hotfile.com/dl/23747735/c010c7f/King.Of.Movie.D.D.Dan.2009.2CD.OrignalDVDRip.XviD.AC3.Sub.avi.007.html
    http://hotfile.com/dl/23748280/c41180b/King.Of.Movie.D.D.Dan.2009.2CD.OrignalDVDRip.XviD.AC3.Sub.avi.008.html
    http://hotfile.com/dl/23747738/cf04dd0/King.Of.Movie.D.D.Dan.2009.2CD.OrignalDVDRip.XviD.AC3.Sub.avi.009.html
    http://hotfile.com/dl/23748240/f20ac7b/King.Of.Movie.D.D.Dan.2009.2CD.OrignalDVDRip.XviD.AC3.Sub.avi.010.html
    
    Esubs
    
    http://hotfile.com/dl/23748242/3bdf37d/King.Of.Movie.D.D.Dan.2009.2CD.OrignalDVDRip.XviD.AC3.Sub.srt.html
    Use HjSplit to Join the above files.
    Code:
    http://www.easy-share.com/1908557781/hjsplit.exe

 

 

Posting Permissions

  • You may not post new threads
  • You may not post replies
  • You may not post attachments
  • You may not edit your posts
  •