Results 1 to 2 of 2
  1. #1
    Coolest Person You Will Ever Know! www.desirulez.net
    Join Date
    Mar 2008
    Location
    Canada
    Posts
    2,443

    T

    Red face Contract | 2008 | 1CD-PDVD | E-SUB | 700MB

    Follow us on Social Media







    Contract | 2008 | 1CD-PDVD | E-SUB | 700MB

    Code:
    RIP ~ E-SUB ~ Jay78 ~ Team DUS.avi
    Format : AVI
    Format/Info : Audio Video Interleave
    Format profile : OpenDML
    File size : 701 MiB
    Duration : 2h 2mn
    Overal bit rate : 798 Kbps
    Writing application : AVI-Mux GUI 1.17.7, Aug 8 2006 20:59:17
    
    Video
    Format : MPEG-4 Visual
    Format profile : Streaming [email protected]
    Format settings, BVOP : Yes
    Format settings, QPel : No
    Format settings, GMC : No warppoints
    Format settings, Matrix : Default
    Codec ID : XVID
    Codec ID/Hint : XviD
    Duration : 2h 2mn
    Bit rate : 666 Kbps
    Width : 608 pixels
    Height : 272 pixels
    Display aspect ratio : 2.25
    Frame rate : 29.970 fps
    Resolution : 8 bits
    Colorimetry : 4:2:0
    Scan type : Progressive
    Bits/(Pixel*Frame) : 0.134
    Stream size : 585 MiB (83%)
    Writing library : XviD 1.2.0.dev47 (UTC 2006-11-01)
    
    Audio
    Format : MPEG Audio
    Format version : Version 1
    Format profile : Layer 3
    Codec ID : 55
    Codec ID/Hint : MP3
    Bit rate mode : Constant
    Bit rate : 128 Kbps
    Channel(s) : 2 channels
    Sampling rate : 44.1 KHz
    Resolution : 16 bits
    Stream size : 112 MiB (16%)
    Title : mp3
    Writing library : LAME3.93






    Code:
    http://rapidshare.com/files/130577402/Contract.PDVD.By.Viki-Da-Gr8.avi.001
    http://rapidshare.com/files/130577368/Contract.PDVD.By.Viki-Da-Gr8.avi.002
    http://rapidshare.com/files/130578727/Contract.PDVD.By.Viki-Da-Gr8.avi.003
    http://rapidshare.com/files/130577093/Contract.PDVD.By.Viki-Da-Gr8.avi.004
    http://rapidshare.com/files/130578483/Contract.PDVD.By.Viki-Da-Gr8.avi.005
    http://rapidshare.com/files/130578485/Contract.PDVD.By.Viki-Da-Gr8.avi.006
    http://rapidshare.com/files/130578517/Contract.PDVD.By.Viki-Da-Gr8.avi.007
    http://rapidshare.com/files/130578284/Contract.PDVD.By.Viki-Da-Gr8.avi.008
    http://rapidshare.com/files/130578291/Contract.PDVD.By.Viki-Da-Gr8.avi.srt

    aww thanks payal, luv ya too.


    edit :- http://www.desirulez.net/showthread.php?t=554743

  2. #2
    dR Dazzler www.desirulez.net
    Join Date
    Jul 2008
    Posts
    95

    T

    Default

    movie comes before the Released on Torrent lols.

    Thanx

    Have Fun

 

 

Posting Permissions

  • You may not post new threads
  • You may not post replies
  • You may not post attachments
  • You may not edit your posts
  •