Results 1 to 3 of 3
  1. #1
    dR Dazzler www.desirulez.net
    Join Date
    Mar 2009
    Posts
    1,518

    T

    Smile Chandni Chowk To China (2009) 1CD DVDRIP

    Follow us on Social Media








    Chandni Chowk to China (2009)

    ScreenShots






    Code:
    Tech Specs
    
    Format : DivX
    Format/Info : Hack of AVI
    File size : 708 MiB
    Duration : 2h 29mn
    Overall bit rate : 660 Kbps
    
    Video
    Format : MPEG-4 Visual
    Format settings, BVOP : Yes
    Format settings, QPel : No
    Format settings, GMC : No warppoints
    Format settings, Matrix : Default
    Codec ID : DX50
    Codec ID/Hint : DivX 5
    Duration : 2h 29mn
    Bit rate : 520 Kbps
    Width : 720 pixels
    Height : 480 pixels
    Display aspect ratio : 1.500
    Frame rate : 29.970 fps
    Standard : NTSC
    Resolution : 24 bits
    Colorimetry : 4:2:0
    Scan type : Progressive
    Bits/(Pixel*Frame) : 0.050
    Stream size : 558 MiB (79%)
    Title : Video
    Writing library : DivX 6.2.5 (UTC 2006-06-16)
    
    Audio
    Format : MPEG Audio
    Format version : Version 1
    Format profile : Layer 3
    Codec ID : 55
    Codec ID/Hint : MP3
    Duration : 2h 29mn
    Bit rate mode : Constant
    Bit rate : 128 Kbps
    Channel(s) : 2 channels
    Sampling rate : 48.0 KHz
    Resolution : 16 bits
    Stream size : 137 MiB (19%)
    Alignment : Split accross interleaves
    Interleave, duration : 33 ms (1.00 video frame)
    Interleave, preload duration : 50 ms
    Title : Audio
    All Credits To Original Ripper

    Uploder-Arvendu[Team Sparkar]


    Code:
    http://rapidshare.com/files/225959097/CC2C.2009.1CD.www.desirulez.net.avi.001
    http://rapidshare.com/files/225965413/CC2C.2009.1CD.www.desirulez.net.avi.002
    http://rapidshare.com/files/225964404/CC2C.2009.1CD.www.desirulez.net.avi.003
    http://rapidshare.com/files/225958737/CC2C.2009.1CD.www.desirulez.net.avi.004

  2. #2
    Coolbie www.desirulez.net
    Join Date
    Dec 2008
    Location
    England
    Posts
    5,799

    T

    Default

    thanks alot

  3. #3
    Administrator www.desirulez.netwww.desirulez.net
    Join Date
    Feb 2009
    Location
    Belgium
    Posts
    3,948

    T

    Default

    god jobbbbb









 

 

Posting Permissions

  • You may not post new threads
  • You may not post replies
  • You may not post attachments
  • You may not edit your posts
  •