Results 1 to 2 of 2
  1. #1
    dR Contributor www.desirulez.net
    Join Date
    Sep 2009
    Posts
    305

    T

    Default Aladin 2009 - 1CD - PDVDRip - XviD - Mp3 - ESubs New Source[Dus] [RS-FF-ES]

    Follow us on Social Media











    Aladin 2009 - 1CD - PDVDRip - XviD - Mp3 - ESubs New Source[Dus] [RS-FF-ES]















    Banner
    Eros Entertainment

    Status
    Released

    Color
    C

    Release Date
    October 30, 2009

    Language
    Hindi

    Genre
    Children / Fantasy

    Shooting Studios
    Filmistan
    Mehboob Studio
    Filmcity

    Producer
    Sujoy Ghosh
    Sunil A. Lulla

    Executive Producer / Co-Producer
    Sameer Rajendran

    Director
    Sujoy Ghosh

    Star Cast
    Amitabh Bachchan...... Genius, the genie
    Sanjay Dutt...... Ring Master
    Ritesh Deshmukh...... Aladin Chatterjee
    Jacqueline Fernandez...... Jasmine
    Saahil Khan...... Kasim
    Victor Banerjee...... Grandfather
    Ratna Pathak...... Marjina
    Meeta Vasisht...... Karate Instructor
    Joy Sengupta...... Arun Chetterjee
    Arif Zakaria...... Prof.Nazir
    Siddharth Sharma...... Kasim Gang
    Master Shubhankar Atre...... Baby Aladin
    Master Ahan Desai...... Young Aladin
    Master Dev Kanatawala...... Young Kasim
    William Ong...... Xi Guang Lee
    Juhi Chawla
    Sameera Reddy

    Cassettes and CD's on
    Eros Music

    Singers
    Shankar Mahadevan
    Shaan
    Amitabh Bachchan
    Shreya Ghosal
    Sudesh Bhosle
    Vishal Dadlani
    Shekhar Ravjiani
    Anushka Manchanda
    Sunidhi Chauhan
    Sanjay Dutt

    Lyricist
    Vishal Dadlani
    Anvita Dutt Guptan

    Music Director
    Vishal Dadlani
    Shekhar Ravjiani

    Background Music
    Jody K Jenkins

    Cinematography
    Sirsha Ray

    Choreography
    Bosco Martis
    Caesar Gonsalves
    Geeta Kapoor
    Saroj Khan
    Shiamak Davar

    Action
    William Ong

    Art
    Sabu Cyril

    Editor
    Suresh Pai

    Screenplay
    Sujoy Ghosh

    Sound
    Hari Dwarak Warrier

    Costume
    Narendra Kumar Ahmed

    Publicity Designs
    Glamour Design Studio

    Story / Writer
    Suresh Nair
    Sujoy Ghosh






























    Code:
    
    
    .. K i n g o f M o v i e   ..   P r a u d l e y p r e g a n t s ..
     
    General
    Complete name : [KoM] Aladin 2009 - 1CD - PDVDRip - New Source - XviD - Mp3 - ESubs [RRG DesiBBrG.Com].avi
    Format : AVI
    Format/Info : Audio Video Interleave
    Format profile : OpenDML
    File size : 691 MiB
    Duration : 2h 6mn
    Overall bit rate : 761 Kbps
    
    Video
    Format : MPEG-4 Visual
    Format profile : Streaming [email protected]
    Format settings, BVOP : Yes
    Format settings, QPel : Yes
    Format settings, GMC : No warppoints
    Format settings, Matrix : Default (H.263)
    Codec ID : XVID
    Codec ID/Hint : XviD
    Duration : 2h 6mn
    Bit rate : 678 Kbps
    Width : 640 pixels
    Height : 288 pixels
    Display aspect ratio : 2.222
    Frame rate : 23.976 fps
    Resolution : 24 bits
    Colorimetry : 4:2:0
    Scan type : Progressive
    Bits/(Pixel*Frame) : 0.153
    Stream size : 615 MiB (89%)
    Writing library : XviD 1.2.1 (UTC 2008-12-04)
    
    Audio
    Format : MPEG Audio
    Format version : Version 1
    Format profile : Layer 3
    Codec ID : 55
    Codec ID/Hint : MP3
    Duration : 2h 6mn
    Bit rate mode : Constant
    Bit rate : 80.0 Kbps
    Channel(s) : 2 channels
    Sampling rate : 32.0 KHz
    Resolution : 16 bits
    Stream size : 72.6 MiB (11%)
    Alignment : Aligned on interleaves
    Interleave, duration : 1061 ms (25.43 video frames)
    Interleave, preload duration : 216 ms 
    
                                                                                   
    
    

    Credit To Ripper: D33WANA








    Sample






    Code:
    http://rapidshare.com/files/301295009/KoM.Alad.2009.1CD.PDVDRip.NewSource.XviD.Mp3.Esub.avi.001
    http://rapidshare.com/files/301295521/KoM.Alad.2009.1CD.PDVDRip.NewSource.XviD.Mp3.Esub.avi.002
    http://rapidshare.com/files/301297965/KoM.Alad.2009.1CD.PDVDRip.NewSource.XviD.Mp3.Esub.avi.003
    http://rapidshare.com/files/301295452/KoM.Alad.2009.1CD.PDVDRip.NewSource.XviD.Mp3.Esub.avi.004
    http://rapidshare.com/files/301294041/KoM.Alad.2009.1CD.PDVDRip.NewSource.XviD.Mp3.Esub.avi.005
    
    Esub
    
    http://rapidshare.com/files/301292972/KoM.Alad.2009.1CD.PDVDRip.NewSource.XviD.Mp3.Esub.srt


    Code:
    http://www.filefactory.com/file/a080f8a/n/KoM_Alad_2009_1CD_PDVDRip_NewSource_XviD_Mp3_Esub_avi_001
    http://www.filefactory.com/file/a080f8g/n/KoM_Alad_2009_1CD_PDVDRip_NewSource_XviD_Mp3_Esub_avi_002
    http://www.filefactory.com/file/a080f5a/n/KoM_Alad_2009_1CD_PDVDRip_NewSource_XviD_Mp3_Esub_avi_003
    http://www.filefactory.com/file/a080f20/n/KoM_Alad_2009_1CD_PDVDRip_NewSource_XviD_Mp3_Esub_avi_004
    http://www.filefactory.com/file/a2006c1/n/KoM_Alad_2009_1CD_PDVDRip_NewSource_XviD_Mp3_Esub_avi_005
    
    
    Esub
    
    
    http://www.filefactory.com/file/a2c725f/n/KoM_Alad_2009_1CD_PDVDRip_NewSource_XviD_Mp3_Esub_srt



    Code:
    http://www.easy-share.com/1908318291/KoM.Alad.2009.1CD.PDVDRip.NewSource.XviD.Mp3.Esub.avi.002
    http://www.easy-share.com/1908318292/KoM.Alad.2009.1CD.PDVDRip.NewSource.XviD.Mp3.Esub.avi.001
    http://www.easy-share.com/1908318300/KoM.Alad.2009.1CD.PDVDRip.NewSource.XviD.Mp3.Esub.avi.004
    http://www.easy-share.com/1908318301/KoM.Alad.2009.1CD.PDVDRip.NewSource.XviD.Mp3.Esub.avi.003
    http://www.easy-share.com/1908318305/KoM.Alad.2009.1CD.PDVDRip.NewSource.XviD.Mp3.Esub.avi.005
    
    Esub
    
    http://www.easy-share.com/1908318287/KoM.Alad.2009.1CD.PDVDRip.NewSource.XviD.Mp3.Esub.srt
    Use HjSplit to Join the above files.
    Code:
    http://www.easy-share.com/1907468224/hjsplit.exe

  2. #2
    New Arrivals
    Join Date
    Nov 2009
    Posts
    3

    T

    Default

    movie

 

 

Posting Permissions

  • You may not post new threads
  • You may not post replies
  • You may not post attachments
  • You may not edit your posts
  •