Results 1 to 1 of 1
  1. #1
    Banned www.desirulez.net
    Join Date
    Jan 2010
    Posts
    2,522

    T

    Thumbs up Apsara Awards - Superstars Dhamaka - 22nd January 2011 1Link

    Follow us on Social Media







    Apsara Awards - Superstars Dhamaka - 22nd January 2011 1Link




    General
    Complete name : D:\ALL VIDEOS HERE\CURRENT VIDEO RECORDED\Apsara.Awards.Superstars.Dhamaka.22nd.January.2011.By.Deejam.avi
    Format : AVI
    Format/Info : Audio Video Interleave
    File size : 487 MiB
    Duration : 41mn 34s
    Overall bit rate : 1 638 Kbps
    Writing library : Boilsoft Joiner build 2411/release

    Video
    ID : 0
    Format : MPEG-4 Visual
    Format profile : [email protected]
    Format settings, BVOP : No
    Format settings, QPel : No
    Format settings, GMC : No warppoints
    Format settings, Matrix : Default (H.263)
    Codec ID : XVID
    Codec ID/Hint : XviD
    Duration : 41mn 34s
    Bit rate : 1 501 Kbps
    Width : 512 pixels
    Height : 384 pixels
    Display aspect ratio : 4:3
    Frame rate : 25.000 fps
    Color space : YUV
    Chroma subsampling : 4:2:0
    Bit depth : 8 bits
    Scan type : Progressive
    Compression mode : Lossy
    Bits/(Pixel*Frame) : 0.305
    Stream size : 446 MiB (92%)
    Writing library : Lavc51.54.0

    Audio
    ID : 1
    Format : MPEG Audio
    Format version : Version 1
    Format profile : Layer 3
    Mode : Joint stereo
    Mode extension : MS Stereo
    Codec ID : 55
    Codec ID/Hint : MP3
    Duration : 41mn 34s
    Bit rate mode : Constant
    Bit rate : 128 Kbps
    Channel(s) : 2 channels
    Sampling rate : 44.1 KHz
    Compression mode : Lossy
    Stream size : 38.1 MiB (8%)
    Alignment : Split accross interleaves
    Interleave, duration : 40 ms (1.00 video frame)
    Interleave, preload duration : 500 ms
    Writing library : LAME3.98 (beta)


    400MB Links


    Code:
    http://hotfile.com/dl/98818283/1ac6de9/Apsara.Awards.Superstars.Dhamaka.22nd.January.2011.By.Deejam.part1.rar.html
    http://hotfile.com/dl/98817974/895dac5/Apsara.Awards.Superstars.Dhamaka.22nd.January.2011.By.Deejam.part2.rar.html

    OR
    Code:
    http://www.fileserve.com/file/jv8TVzP/Apsara.Awards.Superstars.Dhamaka.22nd.January.2011.By.Deejam.part1.rar
    http://www.fileserve.com/file/PpPYdPY/Apsara.Awards.Superstars.Dhamaka.22nd.January.2011.By.Deejam.part2.rar
    OR
    Code:
    http://www.filesonic.com/file/62836516/Apsara.Awards.Superstars.Dhamaka.22nd.January.2011.By.Deejam.part1.rar
    http://www.filesonic.com/file/62816571/Apsara.Awards.Superstars.Dhamaka.22nd.January.2011.By.Deejam.part2.rar






    Single Link 500MB

    Code:
    http://bitshare.com/files/lke1pztf/Apsara.Awards.Superstars.Dhamaka.22nd.January.2011.By.Deejam.rar.html
    OR

    Code:
    http://www.filesonic.com/file/62816631/Apsara.Awards.Superstars.Dhamaka.22nd.January.2011.By.Deejam.rar
    OR
    Code:
    http://www.fileserve.com/file/stbvTJR/Apsara.Awards.Superstars.Dhamaka.22nd.January.2011.By.Deejam.rar
    OR
    Code:
    http://www.duckload.com/download/2357794/Apsara.Awards.Superstars.Dhamaka.22nd.January.2011.By.Deejam.rar








 

 

Posting Permissions

  • You may not post new threads
  • You may not post replies
  • You may not post attachments
  • You may not edit your posts
  •