Results 1 to 1 of 1
  1. #1
    dR Rockers www.desirulez.net
    Join Date
    Apr 2011
    Posts
    687

    T

    Default Zindagi Na Milegi Dobara (2011) - 1/5 - ScamRip -Xvid -Mp3 - [ FSC /FD / WU ]

    Follow us on Social Media










    Code:
    Format                           : AVI
    Format/Info                      : Audio Video Interleave
    File size                        : 942 MiB
    Duration                         : 1h 46mn
    Overall bit rate                 : 1 236 Kbps
    Writing application              : Lavf52.39.1
    
    Video
    ID                               : 0
    Format                           : xvid
    Codec ID                         : xvid
    Duration                         : 1h 46mn
    Bit rate                         : 1 160 Kbps
    Width                            : 624 pixels
    Height                           : 272 pixels
    Display aspect ratio             : 2.25:1
    Frame rate                       : 25.000 fps
    Bits/(Pixel*Frame)               : 0.273
    Stream size                      : 884 MiB (94%)
    
    Audio
    ID                               : 1
    Format                           : MPEG Audio
    Format version                   : Version 1
    Format profile                   : Layer 3
    Mode                             : Joint stereo
    Mode extension                   : MS Stereo
    Codec ID                         : 55
    Codec ID/Hint                    : MP3
    Duration                         : 1h 46mn
    Bit rate mode                    : Constant
    Bit rate                         : 64.0 Kbps
    Channel(s)                       : 2 channels
    Sampling rate                    : 48.0 KHz
    Compression mode                 : Lossy
    Stream size                      : 48.8 MiB (5%)
    Alignment                        : Aligned on interleaves
    Interleave, duration             : 24 ms (0.60 video frame)
    Interleave, preload duration     : 24 ms


















    Code:
    http://www.filedino.com/i2thpy208qg9


    Code:
    http://www.wupload.com/file/57540838/ZindiNaMilDoba2011.Scam.Xvid.avi



    Code:
    http://www.filesonic.com/file/1452792574/ZindiNaMilDoba2011.Scam.Xvid.avi







    Code:
    https://www.filedino.com/mucjsu8f3xz7
    https://www.filedino.com/wc0jlyes4sku
    https://www.filedino.com/disrspeybts8
    https://www.filedino.com/2i30hmo639ky
    https://www.filedino.com/skx092nf3uga



    Code:
    http://www.wupload.com/file/57540909/ZindiNaMilDoba2011.Scam.Xvid.avi.001
    http://www.wupload.com/file/57540667/ZindiNaMilDoba2011.Scam.Xvid.avi.002
    http://www.wupload.com/file/57540902/ZindiNaMilDoba2011.Scam.Xvid.avi.003
    http://www.wupload.com/file/57540901/ZindiNaMilDoba2011.Scam.Xvid.avi.004
    http://www.wupload.com/file/57540454/ZindiNaMilDoba2011.Scam.Xvid.avi.005


    Code:
    http://www.filesonic.com/file/1452812851/ZindiNaMilDoba2011.Scam.Xvid.avi.001
    http://www.filesonic.com/file/1452812931/ZindiNaMilDoba2011.Scam.Xvid.avi.002
    http://www.filesonic.com/file/1452816561/ZindiNaMilDoba2011.Scam.Xvid.avi.003
    http://www.filesonic.com/file/1452812941/ZindiNaMilDoba2011.Scam.Xvid.avi.004
    http://www.filesonic.com/file/1452804334/ZindiNaMilDoba2011.Scam.Xvid.avi.005




 

 

Posting Permissions

  • You may not post new threads
  • You may not post replies
  • You may not post attachments
  • You may not edit your posts
  •