Results 1 to 1 of 1
  1. #1
    dR Contributor www.desirulez.net
    Join Date
    Jan 2011
    Posts
    2,299

    T

    Smile Zidnagi Na Milegi Dobara (2011) - 1CD - Yamraaj - CAMRip - MPG

    Follow us on Social Media












    Format : MPEG-PS
    File size : 688 MiB
    Duration : 1h 46mn
    Overall bit rate : 903 Kbps
    Writing library : encoded by TMPGEnc Video Mastering Works 5 Version. 5.0.5.32

    Video
    ID : 224 (0xE0)
    Format : MPEG Video
    Format version : Version 1
    Format settings, BVOP : Yes
    Format settings, Matrix : Default
    Duration : 1h 46mn
    Bit rate mode : Variable
    Bit rate : 826 Kbps
    Width : 352 pixels
    Height : 288 pixels
    Display aspect ratio : 4:3
    Frame rate : 25.000 fps
    Standard : PAL
    Color space : YUV
    Bit depth : 8 bits
    Scan type : Progressive
    Compression mode : Lossy
    Bits/(Pixel*Frame) : 0.326
    Stream size : 626 MiB (91%)
    Writing library : TMPGEnc Video Mastering Works 5 Version. 5.0.5.32

    Audio
    ID : 192 (0xC0)
    Format : MPEG Audio
    Format version : Version 1
    Format profile : Layer 2
    Duration : 1h 46mn
    Bit rate mode : Constant
    Bit rate : 64.0 Kbps
    Channel(s) : 2 channels
    Sampling rate : 48.0 KHz
    Compression mode : Lossy
    Stream size : 48.8 MiB (7%)









    Code:
    http://cramit.in/0nn4grvxvna5
    
    OR
    
    http://filekeen.com/bv81muwny8ve
    
    OR
    
    http://pyramidfiles.com/5yzwg06r6mx1/Zindagi_Na_Milegi_Dobara-2011_Yamraaj_CAMRip_MPG.mpg.html

 

 

Posting Permissions

  • You may not post new threads
  • You may not post replies
  • You may not post attachments
  • You may not edit your posts
  •