Results 1 to 1 of 1
  1. #1
    dR Contributor www.desirulez.net
    Join Date
    Jan 2011
    Posts
    2,299

    T

    Smile Yogi Bear (2010) - TS - H264 - MP4 - [FeelFree]

    Follow us on Social Media









    Genre:Animation | Adventure | Comedy
    Language:English
    IMDb:

    Code:
    http://www.imdb.com/title/tt1302067/
    Source:IMAGINE Thx.
    Subtitles:Romana



    Format : MPEG-4
    Format profile : Base Media
    Codec ID : isom
    File size : 894 MiB
    Duration : 1h 12mn
    Overall bit rate : 1 731 Kbps


    Video
    Codec ID : avc1
    Codec ID/Info : Advanced Video Coding
    Duration : 1h 12mn
    Bit rate mode : Variable
    Bit rate : 1 563 Kbps
    Width : 720 pixels
    Height : 480 pixels
    Display aspect ratio : 3:2
    Frame rate mode : Constant
    Frame rate : 29.970 fps
    Original frame rate : 29.000 fps
    Standard : NTSC
    Color space : YUV
    Chroma subsampling : 4:2:0
    Bit depth : 8 bits
    Scan type : Progressive
    Bits/(Pixel*Frame) : 0.151
    Stream size : 808 MiB (90%)


    Audio
    ID : 1
    Format : AAC
    Format/Info : Advanced Audio Codec
    Format version : Version 4
    Format profile : LC
    Codec ID : 40
    Duration : 1h 12mn
    Bit rate mode : Constant
    Bit rate : 160 Kbps
    Channel(s) : 2 channels
    Channel positions : Front: L R
    Sampling rate : 48.0 KHz
    Stream size : 82.7 MiB (9%)
    Language : English

    Screenshots:




    Download Link:

    Code:
    http://cramit.in/9qbiu9ih3c32

 

 

Posting Permissions

  • You may not post new threads
  • You may not post replies
  • You may not post attachments
  • You may not edit your posts
  •