Results 1 to 1 of 1
  1. #1
    Coolbie www.desirulez.net
    Join Date
    Nov 2011
    Posts
    722

    T

    Default Watch Players 2012 Hindi Movie Online

    Follow us on Social Media







    Players (2012) 1CD PDVDRip XviD Mp3 ~ Exclusive



    INFORMATION

    Code:
    Format                                   : AVI
    Format/Info                              : Audio Video Interleave
    File size                                : 800 MiB
    Duration                                 : 2h 25mn
    Overall bit rate                         : 767 Kbps
    Writing application                      : Lavf52.39.1
    Writing library                          : VirtualDub build 32842/release
    
    Video
    ID                                       : 0
    Format                                   : MPEG-4 Visual
    Format profile                           : Advanced [email protected]
    Format settings, BVOP                    : 2
    Format settings, QPel                    : No
    Format settings, GMC                     : No warppoints
    Format settings, Matrix                  : Default (H.263)
    Muxing mode                              : Packed bitstream
    Codec ID                                 : XVID
    Codec ID/Hint                            : XviD
    Duration                                 : 2h 25mn
    Bit rate                                 : 690 Kbps
    Width                                    : 602 pixels
    Height                                   : 266 pixels
    Display aspect ratio                     : 2.25:1
    Frame rate                               : 25.000 fps
    Color space                              : YUV
    Chroma subsampling                       : 4:2:0
    Bit depth                                : 8 bits
    Scan type                                : Progressive
    Compression mode                         : Lossy
    Bits/(Pixel*Frame)                       : 0.172
    Stream size                              : 720 MiB (90%)
    Writing library                          : XviD 64
    
    Audio
    ID                                       : 1
    Format                                   : MPEG Audio
    Format version                           : Version 1
    Format profile                           : Layer 3
    Mode                                     : Joint stereo
    Mode extension                           : MS Stereo
    Codec ID                                 : 55
    Codec ID/Hint                            : MP3
    Duration                                 : 2h 25mn
    Bit rate mode                            : Constant
    Bit rate                                 : 64.0 Kbps
    Channel(s)                               : 2 channels
    Sampling rate                            : 48.0 KHz
    Compression mode                         : Lossy
    Stream size                              : 66.8 MiB (8%)
    Alignment                                : Aligned on interleaves
    Interleave, duration                     : 24 ms (0.60 video frame)
    Interleave, preload duration             : 504 ms
    SCREENS








    Code:
    http://www.fileserve.com/file/4SHdPzd
    
    http://www.filesonic.com/file/nhjk9BS/Playe.1Cd.SCamRip.XviD.MP3.By.Team.SD.avi
    
    http://www.filefactory.com/file/c10e0d4/n/Players
    
    http://www.uploadstation.com/file/c9NKesS
    
    http://hipfile.com/y55kjzn1lxq2/Playe.1Cd.SCamRip.XviD.MP3.By.Team.SD.avi.html (Direct Link)
    
    http://muchshare.net/ljkkg19cbdbs
    
    http://ul.to/tvy0nt54
    Watch It Online
    videobb - Free Video Hosting - Your #1 Video Site - Playe.1Cd.SCamRip.XviD.MP3.By.Team.SD
    VideoZer - Fast, Free and Reliable Video Hosting - backuu---pys12_Pdvd_Rip_XviD_Mp3


    Share With Your Friends

 

 

Tags for this Thread

Posting Permissions

  • You may not post new threads
  • You may not post replies
  • You may not post attachments
  • You may not edit your posts
  •