Results 1 to 1 of 1
  1. #1
    The Individual Releaser www.desirulez.net
    Join Date
    Oct 2010
    Posts
    1,507

    T

    Default Vikalp (2011) - 1 CD - S-CAM - XVID - MP4 - AAC

    Follow us on Social Media







    Vikalp (2011) - 1 CD - S-CAM - XVID - MP4 - AAC



    General
    Complete name :vikalp (2011)1CD - SCam Rip - XViD - AAC.mp4
    Format : MPEG-4
    Format profile : Base Media
    Codec ID : isom
    File size : 854 MiB
    Duration : 1h 49mn
    Overall bit rate : 1 090 Kbps

    Video
    ID : 1
    Format : MPEG-4 Visual
    Format profile : [email protected]
    Format settings, BVOP : No
    Format settings, QPel : No
    Format settings, GMC : No warppoints
    Format settings, Matrix : Default (H.263)
    Codec ID : 20
    Duration : 1h 49mn
    Bit rate mode : Variable
    Bit rate : 958 Kbps
    Width : 500 pixels
    Height : 250 pixels
    Display aspect ratio : 2.2:1
    Original display aspect ratio : 2.000
    Frame rate mode : Constant
    Frame rate : 25.000 fps
    Color space : YUV
    Chroma subsampling : 4:2:0
    Bit depth : 8 bits
    Scan type : Progressive
    Bits/(Pixel*Frame) : 0.306
    Stream size : 750 MiB (88%)

    Audio
    ID : 2
    Format : AAC
    Format/Info : Advanced Audio Codec
    Format version : Version 4
    Format profile : LC
    Format settings, SBR : No
    Codec ID : 40
    Duration : 1h 49mn
    Bit rate mode : Variable
    Bit rate : 128 Kbps
    Channel(s) : 2 channels
    Channel positions : Front: L R
    Sampling rate : 44.1 KHz
    Stream size : 100 MiB (12%)
    CREDITS TO: TEAM UDR

    Code:
    http://www.duckload.com/download/2019089/vikalp_2011_1CD_-_SCam_Rip_-_XViD_-_AAC_team_tdk_desi-indian.mp4

 

 

Posting Permissions

  • You may not post new threads
  • You may not post replies
  • You may not post attachments
  • You may not edit your posts
  •