Results 1 to 1 of 1
  1. #1

    Red face Toonpur Ka Superrhero (2010)1CD - Scam Rip - XViD - Team ICTV [Single link]

    Follow us on Social Media







    Toonpur Ka Superrhero (2010)1CD - Scam Rip - XViD - Team ICTV [Single link]





    General
    Complete name : Toonpur Ka Super Hero
    Format : AVI
    Format/Info : Audio Video Interleave
    Format profile : OpenDML
    File size : 691 MiB
    Duration : 1h 22mn
    Overall bit rate : 1 176 Kbps
    Writing application : AVI-Mux GUI 1.17.8.3, Feb 16 201019:42:50

    Video
    ID : 0
    Format : MPEG-4 Visual
    Format profile : Advanced [email protected]
    Format settings, BVOP : Yes
    Format settings, QPel : No
    Format settings, GMC : No warppoints
    Format settings, Matrix : Default (H.263)
    Codec ID : XVID
    Codec ID/Hint : XviD
    Duration : 1h 22mn
    Bit rate : 1 065 Kbps
    Width : 592 pixels
    Height : 272 pixels
    Display aspect ratio : 2.2:1
    Frame rate : 25.000 fps
    Color space : YUV
    Chroma subsampling : 4:2:0
    Bit depth : 8 bits
    Scan type : Progressive
    Compression mode : Lossy
    Bits/(Pixel*Frame) : 0.264
    Stream size : 626 MiB (91%)
    Writing library : XviD 1.2.1 (UTC 2008-12-04)

    Audio
    ID : 1
    Format : MPEG Audio
    Format version : Version 1
    Format profile : Layer 3
    Mode : Joint stereo
    Codec ID : 55
    Codec ID/Hint : MP3
    Duration : 1h 22mn
    Bit rate mode : Variable
    Bit rate : 102 Kbps
    Nominal bit rate : 112 Kbps
    Channel(s) : 2 channels
    Sampling rate : 44.1 KHz
    Compression mode : Lossy
    Stream size : 60.2 MiB (9%)
    Alignment : Aligned on interleaves
    Interleave, duration : 26 ms (0.65 video frame)
    Interleave, preload duration : 213 ms
    Title : VTS_01_1 Tc0 L2 2ch 48 128 DELAY 0ms
    Writing library : LAME3.98r






    Code:
    http://www.duckload.com/dl/2lzO2

 

 

Posting Permissions

  • You may not post new threads
  • You may not post replies
  • You may not post attachments
  • You may not edit your posts
  •