Results 1 to 1 of 1
  1. #1
    dR Contributor www.desirulez.net
    Join Date
    Jan 2011
    Posts
    2,299

    T

    Smile Thor (2011) - TSRip - Xvid - [READNFO]

    Follow us on Social Media










    Release Date......:01/05/11
    Theatre Date......:27/05/11
    Runtime.......:1h 44mn
    Language..........:ENGLISH
    Ripper ...........: IMAGiNE Rating.......:7.8/10

    Video Codec.......: XVID
    Audio Codec.......:MP3
    Audio Bitrate.....:128
    Subtitles.........:NIL
    Resolution...... 720 x 304


    Video
    ID : 0
    Format : MPEG-4 Visual
    Format profile : Advanced [email protected]
    Format settings, BVOP : 2
    Format settings, QPel : No
    Format settings, GMC : No warppoints
    Format settings, Matrix : Default (MPEG)
    Muxing mode : Packed bitstream
    Codec ID : XVID
    Codec ID/Hint : XviD
    Duration : 1h 44mn
    Bit rate : 1 636 Kbps
    Width : 720 pixels
    Height : 304 pixels
    Display aspect ratio : 2.35:1
    Frame rate : 25.000 fps
    Color space : YUV
    Chroma subsampling : 4:2:0
    Bit depth : 8 bits
    Scan type : Progressive
    Compression mode : Lossy
    Bits/(Pixel*Frame) : 0.299
    Stream size : 1.19 GiB (92%)
    Writing library : XviD 6

    Audio
    ID : 1
    Format : MPEG Audio
    Format version : Version 1
    Format profile : Layer 3
    Mode : Joint stereo
    Mode extension : MS Stereo
    Codec ID : 55
    Codec ID/Hint : MP3
    Duration : 1h 44mn
    Bit rate mode : Constant
    Bit rate : 128 Kbps
    Channel(s) : 2 channels
    Sampling rate : 44.1 KHz
    Compression mode : Lossy
    Delay relative to video : 4ms
    Stream size : 95.2 MiB (7%)
    Alignment : Split accross interleaves
    Interleave, duration : 40 ms (1.00 video frame)
    Interleave, preload duration : 500 ms







    Code:
    http://cramit.in/r10rs442layc
    OR

    Code:
    http://www.uploadstation.com/file/gnFneJ8
    Last edited by desi_don; 05-03-2011 at 10:55 AM.

 

 

Posting Permissions

  • You may not post new threads
  • You may not post replies
  • You may not post attachments
  • You may not edit your posts
  •