Results 1 to 3 of 3
  1. #1
    Hot Member www.desirulez.net
    Join Date
    Oct 2010
    Posts
    859

    T

    Thumbs up Singham (2011) - Hindi - NEW - SCAM - Rip - MPG - [700MB]

    Follow us on Social Media









    Code:
    File size : 698 MiB
    Duration : 2h 1mn
    Overall bit rate : 807 Kbps
    Writing library : encoded by TMPGEnc Video Mastering Works 5 Version. 5.0.5.32
    
    Video
    ID : 224 (0xE0)
    Format : MPEG Video
    Format version : Version 1
    Format settings, BVOP : Yes
    Format settings, Matrix : Default
    Duration : 2h 1mn
    Bit rate mode : Variable
    Bit rate : 730 Kbps
    Width : 352 pixels
    Height : 288 pixels
    Display aspect ratio : 4:3
    Frame rate : 25.000 fps
    Standard : PAL
    Color space : YUV
    Bit depth : 8 bits
    Scan type : Progressive
    Compression mode : Lossy
    Bits/(Pixel*Frame) : 0.288
    Stream size : 629 MiB (90%)
    Writing library : TMPGEnc Video Mastering Works 5 Version. 5.0.5.32
    
    Audio
    ID : 192 (0xC0)
    Format : MPEG Audio
    Format version : Version 1
    Format profile : Layer 2
    Duration : 2h 1mn
    Bit rate mode : Constant
    Bit rate : 64.0 Kbps
    Channel(s) : 2 channels
    Sampling rate : 48.0 KHz
    Compression mode : Lossy
    Stream size : 55.4 MiB (8%)
    SCREENS :









    Code:
    http://www.wupload.com/file/64288949/Singham.2011.New.SDL.mpg

  2. #2

    Default

    nice mate

  3. #3
    New Arrivals
    Join Date
    Jul 2011
    Posts
    6

    T

    Default

    nice! thank!

 

 

Posting Permissions

  • You may not post new threads
  • You may not post replies
  • You may not post attachments
  • You may not edit your posts
  •