Results 1 to 1 of 1
  1. #1
    Super Member www.desirulez.net
    Join Date
    May 2011
    Posts
    300

    T

    Lightbulb Rascals (2011) SuperCamRip - XviD - Mp3 [Kp]

    Follow us on Social Media









    Rascals (2011) SuperCamRip - XviD - Mp3 [Kp]


    Format : AVI
    Format/Info : Audio Video Interleave
    File size : 933 MiB
    Duration : 1h 57mn
    Overall bit rate : 1 107 Kbps
    Writing application : Lavf52.39.1

    Video
    ID : 0
    Format : xvid
    Codec ID : xvid
    Duration : 1h 57mn
    Bit rate : 1 030 Kbps
    Width : 580 pixels
    Height : 260 pixels
    Display aspect ratio : 2.25:1
    Frame rate : 23.976 fps
    Bits/(Pixel*Frame) : 0.285
    Stream size : 869 MiB (93%)

    Audio
    ID : 1
    Format : MPEG Audio
    Format version : Version 1
    Format profile : Layer 3
    Mode : Joint stereo
    Mode extension : MS Stereo
    Codec ID : 55
    Codec ID/Hint : MP3
    Duration : 1h 57mn
    Bit rate mode : Constant
    Bit rate : 64.0 Kbps
    Channel(s) : 2 channels
    Sampling rate : 44.1 KHz
    Compression mode : Lossy
    Stream size : 54.0 MiB (6%)
    Alignment : Aligned on interleaves
    Interleave, duration : 26 ms (0.63 video frame)
    Interleave, preload duration : 26 ms


















    Code:
    http://www.fileserve.com/file/U2FPhGn/Rascals.2011.Super.Cam.Rip.XviD-KP_W-home.avi
    Code:
    http://www.filesonic.com/file/2358211834/Rascals.2011.Super.Cam.Rip.XviD-KP_W-home.avi
    Code:
    http://rapidshare.com/files/2091617970/Rascals.2011.Super.Cam.Rip.XviD-KP_W-home.avi
    Code:
    http://www.filejungle.com/f/y7s7EP/Rascals.2011.Super.Cam.Rip.XviD-KP_W-home.avi




 

 

Posting Permissions

  • You may not post new threads
  • You may not post replies
  • You may not post attachments
  • You may not edit your posts
  •