Results 1 to 1 of 1
  1. #1
    Administrators www.desirulez.net
    Join Date
    Mar 2010
    Location
    Sea Side
    Posts
    9,872

    T

    Default Nakshatra (2010) Hindi Super Cam Rip Xvid

    Follow us on Social Media











    Nakshatra (2010) Hindi Super Cam Rip Xvid - Single Links




    Nfo:

    Code:
    General
    
    Format                           : MPEG-PS
    File size                        : 906 MiB
    Duration                         : 1h 49mn
    Overall bit rate                 : 1 157 Kbps
    
    Video
    ID                               : 224 (0xE0)
    Format                           : MPEG Video
    Format version                   : Version 2
    Format profile                   : [email protected]
    Format settings, BVOP            : Yes
    Format settings, Matrix          : Default
    Format settings, GOP             : M=3, N=12
    Duration                         : 1h 49mn
    Bit rate mode                    : Variable
    Bit rate                         : 1 006 Kbps
    Nominal bit rate                 : 2 519 Mbps
    Width                            : 720 pixels
    Height                           : 576 pixels
    Display aspect ratio             : 4:3
    Frame rate                       : 25.000 fps
    Standard                         : PAL
    Color space                      : YUV
    Chroma subsampling               : 4:2:0
    Bit depth                        : 8 bits
    Scan type                        : Progressive
    Bits/(Pixel*Frame)               : 0.097
    Stream size                      : 788 MiB (87%)
    
    Audio
    ID                               : 192 (0xC0)
    Format                           : MPEG Audio
    Format version                   : Version 1
    Format profile                   : Layer 2
    Duration                         : 1h 49mn
    Bit rate mode                    : Constant
    Bit rate                         : 128 Kbps
    Channel(s)                       : 2 channels
    Sampling rate                    : 44.1 KHz
    Stream size                      : 100 MiB (11%)


    Screens:















    ALL CREDITS GOES TO Team DAYN



    Single Links | No Extraction | No Password | My Upload


    Code:
    http://www.fileserve.com/file/PPttwKG/Nakshatra__2010__Super_Cam_Rip_Xvid.MPG




 

 

Posting Permissions

  • You may not post new threads
  • You may not post replies
  • You may not post attachments
  • You may not edit your posts
  •