Results 1 to 1 of 1
  1. #1
    dR Contributor www.desirulez.net
    Join Date
    Feb 2011
    Location
    www.desirulez.net
    Posts
    482

    T

    Default Mere Brother Ki Dhullan (2011)(Audio Cleaned) New Source 1 CD Cam Rip

    Follow us on Social Media







    Mere Brother Ki Dhullan (2011)(Audio Cleaned) New Source 1 CD Cam Rip





    Format : MPEG-4
    Format profile : Base Media / Version 2
    Codec ID : mp42
    File size : 698 MiB
    Duration : 2h 10mn
    Overall bit rate : 751 Kbps
    Video
    ID : 1
    Format : AVC
    Format/Info : Advanced Video Codec
    Format profile : [email protected]
    Format settings, CABAC : Yes
    Format settings, ReFrames : 4 frames
    Format settings, GOP : M=1, N=63
    Codec ID : avc1
    Codec ID/Info : Advanced Video Coding
    Duration : 2h 10mn
    Bit rate mode : Variable
    Bit rate : 653 Kbps
    Width : 580 pixels
    Height : 240 pixels
    Display aspect ratio : 2.40:1
    Frame rate mode : Constant
    Frame rate : 25.000 fps
    Color space : YUV
    Chroma subsampling : 4:2:0
    Bit depth : 8 bits
    Scan type : Progressive
    Bits/(Pixel*Frame) : 0.188
    Stream size : 608 MiB (87%)
    Writing library : x264 core 112
    Audio
    ID : 2
    Format : MPEG Audio
    Format version : Version 1
    Format profile : Layer 3
    Mode : Joint stereo
    Mode extension : MS Stereo
    Codec ID : 69
    Duration : 2h 10mn
    Bit rate mode : Variable
    Bit rate : 93.2 Kbps
    Maximum bit rate : 107 Kbps
    Channel(s) : 2 channels
    Sampling rate : 44.1 KHz
    Compression mode : Lossy
    Stream size : 86.7 MiB (12%)







    Movie Link::

    Code:
    http://www.wupload.com/file/158592034/Mere_Brother_Ki_Dhullan_(2011)_(Audio_Cleaned)_1_CD_Super_Cam_Rip.mp4
    
    http://www.filejungle.com/f/KygPQv
    
    http://www.filesonic.com/file/1924384691/Mere_Brother_Ki_Dhullan_(2011)_(Audio_Cleaned)_1_CD_Super_Cam_Rip.mp4
    
    http://www.fileserve.com/file/yEpKCrr

 

 

Posting Permissions

  • You may not post new threads
  • You may not post replies
  • You may not post attachments
  • You may not edit your posts
  •