Results 1 to 1 of 1
  1. #1
    Hot Member www.desirulez.net
    Join Date
    Oct 2010
    Posts
    859

    T

    Cool Mausam (2011) - Untouched - YamRaaJ - SCAM - Rip - MPG - 1CD - [Team DUS]

    Follow us on Social Media









    Info


    Code:
    Format                           : MPEG-PS
    File size                        : 698 MiB
    Duration                         : 2h 21mn
    Overall bit rate                 : 691 Kbps
    Writing library                  : encoded by TMPGEnc Video Mastering Works 5 Version. 5.0.5.32
    
    Video
    ID                               : 224 (0xE0)
    Format                           : MPEG Video
    Format version                   : Version 1
    Format settings, BVOP            : Yes
    Format settings, Matrix          : Custom
    Duration                         : 2h 21mn
    Bit rate mode                    : Variable
    Bit rate                         : 613 Kbps
    Maximum bit rate                 : 616 Kbps
    Width                            : 352 pixels
    Height                           : 288 pixels
    Display aspect ratio             : 4:3
    Frame rate                       : 25.000 fps
    Standard                         : PAL
    Color space                      : YUV
    Bit depth                        : 8 bits
    Scan type                        : Progressive
    Compression mode                 : Lossy
    Bits/(Pixel*Frame)               : 0.242
    Stream size                      : 620 MiB (89%)
    Writing library                  : TMPGEnc Video Mastering Works 5 Version. 5.0.5.32
    
    Audio
    ID                               : 192 (0xC0)
    Format                           : MPEG Audio
    Format version                   : Version 1
    Format profile                   : Layer 2
    Duration                         : 2h 21mn
    Bit rate mode                    : Constant
    Bit rate                         : 64.0 Kbps
    Channel(s)                       : 2 channels
    Sampling rate                    : 48.0 KHz
    Compression mode                 : Lossy
    Stream size                      : 64.7 MiB (9%)
    Screens






    Credits : Team DUS





    Code:
    http://www.wupload.com/file/202980041/Mau.2011.SCAM.1CD.MPG-SDL.mpg


    Code:
    http://www.filesonic.com/file/2126452161/Mau.2011.SCAM.1CD.MPG-SDL.mpg


    Code:
    http://www.fileserve.com/file/NkkEqDx/Mau.2011.SCAM.1CD.MPG-SDL.mpg
    Split Links :-

    Code:
    http://www.wupload.com/file/202980032/Mau.2011.SCAM.1CD.MPG-SDL.mpg.001
    http://www.wupload.com/file/202980033/Mau.2011.SCAM.1CD.MPG-SDL.mpg.002
    http://www.wupload.com/file/202978283/Mau.2011.SCAM.1CD.MPG-SDL.mpg.003
    http://www.wupload.com/file/202978285/Mau.2011.SCAM.1CD.MPG-SDL.mpg.004
    http://www.wupload.com/file/202978277/Mau.2011.SCAM.1CD.MPG-SDL.mpg.005
    http://www.wupload.com/file/202978273/Mau.2011.SCAM.1CD.MPG-SDL.mpg.006
    http://www.wupload.com/file/202978275/Mau.2011.SCAM.1CD.MPG-SDL.mpg.007
    Code:
    http://www.filesonic.com/file/2126427521/Mau.2011.SCAM.1CD.MPG-SDL.mpg.001
    http://www.filesonic.com/file/2126427451/Mau.2011.SCAM.1CD.MPG-SDL.mpg.002
    http://www.filesonic.com/file/2126429441/Mau.2011.SCAM.1CD.MPG-SDL.mpg.003
    http://www.filesonic.com/file/2126428754/Mau.2011.SCAM.1CD.MPG-SDL.mpg.004
    http://www.filesonic.com/file/2126427004/Mau.2011.SCAM.1CD.MPG-SDL.mpg.005
    http://www.filesonic.com/file/2126426994/Mau.2011.SCAM.1CD.MPG-SDL.mpg.006
    http://www.filesonic.com/file/2126425971/Mau.2011.SCAM.1CD.MPG-SDL.mpg.007
    Code:
    http://www.fileserve.com/file/fcPNDAR/Mau.2011.SCAM.1CD.MPG-SDL.mpg.001
    http://www.fileserve.com/file/tgDPUp9/Mau.2011.SCAM.1CD.MPG-SDL.mpg.002
    http://www.fileserve.com/file/JB6BkXH/Mau.2011.SCAM.1CD.MPG-SDL.mpg.003
    http://www.fileserve.com/file/GbDrF5s/Mau.2011.SCAM.1CD.MPG-SDL.mpg.004
    http://www.fileserve.com/file/DCRhGSq/Mau.2011.SCAM.1CD.MPG-SDL.mpg.005
    http://www.fileserve.com/file/YS26XVV/Mau.2011.SCAM.1CD.MPG-SDL.mpg.006
    http://www.fileserve.com/file/5ed7WFF/Mau.2011.SCAM.1CD.MPG-SDL.mpg.007

 

 

Posting Permissions

  • You may not post new threads
  • You may not post replies
  • You may not post attachments
  • You may not edit your posts
  •