Results 1 to 1 of 1
  1. #1
    Banned www.desirulez.net
    Join Date
    Apr 2011
    Posts
    127

    T

    Default Mausam (2011) - 1.21GB - Super Cam - XviiD - Mp3 - TMK

    Follow us on Social Media








    Mausam (2011) - 1.21GB - Super Cam - XviiD - Mp3 - TMK



    (Pankaj Kapoor's)

    * Mausam ~ TEAM TMK *

    Super Cam Rip - XviD - Mp3

    *2011*


    Code:
    Format : AVI Format/Info : Audio Video Interleave Format profile : OpenDML File size : 1.21 GiB Duration : 2h 20mn Overall bit rate : 1 231 Kbps Writing application : Lavf52.39.1 Video ID : 0 Format : xvid Codec ID : xvid Duration : 2h 20mn Bit rate : 237 Kbps Width : 624 pixels Height : 270 pixels Display aspect ratio : 2.35:1 Frame rate : 25.000 fps Bits/(Pixel*Frame) : 0.056 Stream size : 239 MiB (19%) Audio ID : 1 Format : MPEG Audio Codec ID : 55 Codec ID/Hint : MP3 Duration : 2h 20mn Bit rate : 64.0 Kbps Channel(s) : 2 channels Sampling rate : 48.0 KHz Compression mode : Lossy Stream size : 10.8 MiB (1%) Alignment : Aligned on interleaves Interleave, duration : 30 ms (0.74 video frame)

    SAMPLE











    Code:
    http://www.fileserve.com/file/WJ3ETUY
    
    http://www.filesonic.com/file/2137045761/Mausam_2011_-_1.21GB_-_Super_Cam_-_XviiD_-_Mp3_-_TMK.avi
    
    http://www.wupload.com/file/204007249/Mausam_2011_-_1.21GB_-_Super_Cam_-_XviiD_-_Mp3_-_TMK.avi
    
    http://www.filejungle.com/f/bjRhEC
    
    http://filekeen.com/4lz44s3pbjs5/Mausam_2011_-_1.21GB_-_Super_Cam_-_XviiD_-_Mp3_-_TMK.avi.html

 

 

Posting Permissions

  • You may not post new threads
  • You may not post replies
  • You may not post attachments
  • You may not edit your posts
  •