Results 1 to 1 of 1
  1. #1
    dR Rockers www.desirulez.net
    Join Date
    Aug 2011
    Posts
    5,859

    T

    Default Mausam (2011) - 1.21GB - Super Cam - XviiD - Mp3 - TMK

    Follow us on Social Media












    (Pankaj Kapoor's)

    * Mausam ~ TEAM TMK *

    Super Cam Rip - XviD - Mp3

    *2011*


    Code:
    Format : AVI Format/Info : Audio Video Interleave Format profile : OpenDML File size : 1.21 GiB Duration : 2h 20mn Overall bit rate : 1 231 Kbps Writing application : Lavf52.39.1 Video ID : 0 Format : xvid Codec ID : xvid Duration : 2h 20mn Bit rate : 237 Kbps Width : 624 pixels Height : 270 pixels Display aspect ratio : 2.35:1 Frame rate : 25.000 fps Bits/(Pixel*Frame) : 0.056 Stream size : 239 MiB (19%) Audio ID : 1 Format : MPEG Audio Codec ID : 55 Codec ID/Hint : MP3 Duration : 2h 20mn Bit rate : 64.0 Kbps Channel(s) : 2 channels Sampling rate : 48.0 KHz Compression mode : Lossy Stream size : 10.8 MiB (1%) Alignment : Aligned on interleaves Interleave, duration : 30 ms (0.74 video frame)

    SAMPLE











    SINGLE LINK


    Code:
    http://www.fileserve.com/file/UfJS2Qv/Mausam_(2011)_Super_Cam_XviD_Mp3_Rip_-_TMK.avi
    Code:
    http://www.filesonic.com/file/2127321894/Mausam_(2011)_Super_Cam_XviD_Mp3_Rip_-_TMK.avi
    Code:
    http://www.wupload.com/file/203071141/Mausam_(2011)_Super_Cam_XviD_Mp3_Rip_-_TMK.avi

    200MB LINKS

    Code:
    http://www.fileserve.com/file/EEdzm74/Mausam_(2011)_Super_Cam_XviD_Mp3_Rip_-_TMK.avi.001
    http://www.fileserve.com/file/kPvY6j2/Mausam_(2011)_Super_Cam_XviD_Mp3_Rip_-_TMK.avi.002
    http://www.fileserve.com/file/GJbT3ty/Mausam_(2011)_Super_Cam_XviD_Mp3_Rip_-_TMK.avi.003
    http://www.fileserve.com/file/JJCh2tA/Mausam_(2011)_Super_Cam_XviD_Mp3_Rip_-_TMK.avi.004
    http://www.fileserve.com/file/qwUkBBV/Mausam_(2011)_Super_Cam_XviD_Mp3_Rip_-_TMK.avi.005
    http://www.fileserve.com/file/nmjV8Vx/Mausam_(2011)_Super_Cam_XviD_Mp3_Rip_-_TMK.avi.006
    http://www.fileserve.com/file/tSyqQkr/Mausam_(2011)_Super_Cam_XviD_Mp3_Rip_-_TMK.avi.007
    
    
    http://www.filesonic.com/file/2127224161/Mausam_(2011)_Super_Cam_XviD_Mp3_Rip_-_TMK.avi.001
    http://www.filesonic.com/file/2127224271/Mausam_(2011)_Super_Cam_XviD_Mp3_Rip_-_TMK.avi.002
    http://www.filesonic.com/file/2127224141/Mausam_(2011)_Super_Cam_XviD_Mp3_Rip_-_TMK.avi.003
    http://www.filesonic.com/file/2127224091/Mausam_(2011)_Super_Cam_XviD_Mp3_Rip_-_TMK.avi.004
    http://www.filesonic.com/file/2127224331/Mausam_(2011)_Super_Cam_XviD_Mp3_Rip_-_TMK.avi.005
    http://www.filesonic.com/file/2127224291/Mausam_(2011)_Super_Cam_XviD_Mp3_Rip_-_TMK.avi.006
    http://www.filesonic.com/file/2127157561/Mausam_(2011)_Super_Cam_XviD_Mp3_Rip_-_TMK.avi.007
    
    
    http://www.wupload.com/file/203067979/Mausam_(2011)_Super_Cam_XviD_Mp3_Rip_-_TMK.avi.001
    http://www.wupload.com/file/203071063/Mausam_(2011)_Super_Cam_XviD_Mp3_Rip_-_TMK.avi.002
    http://www.wupload.com/file/203068011/Mausam_(2011)_Super_Cam_XviD_Mp3_Rip_-_TMK.avi.003
    http://www.wupload.com/file/203067943/Mausam_(2011)_Super_Cam_XviD_Mp3_Rip_-_TMK.avi.004
    http://www.wupload.com/file/203067996/Mausam_(2011)_Super_Cam_XviD_Mp3_Rip_-_TMK.avi.005
    http://www.wupload.com/file/203067927/Mausam_(2011)_Super_Cam_XviD_Mp3_Rip_-_TMK.avi.006
    http://www.wupload.com/file/203063973/Mausam_(2011)_Super_Cam_XviD_Mp3_Rip_-_TMK.avi.007

 

 

Posting Permissions

  • You may not post new threads
  • You may not post replies
  • You may not post attachments
  • You may not edit your posts
  •