Results 1 to 1 of 1
  1. #1
    Administrators www.desirulez.net
    Join Date
    Mar 2010
    Posts
    9,872

    T

    Default Lafangey Parindey (2010) 1cd Sc Rip Xvid [DAYN]

    Follow us on Social Media
















    Lafangey Parindey (2010) 1cd Sc Rip Xvid [DAYN]




    Code:
    General
    
    Format                           : AVI
    Format/Info                      : Audio Video Interleave
    Format profile                   : OpenDML
    File size                        : 672 MiB
    Duration                         : 1h 47mn
    Overall bit rate                 : 872 Kbps
    Writing application              : AVI-Mux GUI 1.17.8.3, Feb 16 201019:42:50
    
    Video
    ID                               : 0
    Format                           : MPEG-4 Visual
    Format profile                   : Advanced [email protected]
    Format settings, BVOP            : Yes
    Format settings, QPel            : No
    Format settings, GMC             : No warppoints
    Format settings, Matrix          : Default (H.263)
    Codec ID                         : XVID
    Codec ID/Hint                    : XviD
    Duration                         : 1h 47mn
    Bit rate                         : 740 Kbps
    Width                            : 608 pixels
    Height                           : 272 pixels
    Display aspect ratio             : 2.25:1
    Frame rate                       : 25.000 fps
    Color space                      : YUV
    Chroma subsampling               : 4:2:0
    Bit depth                        : 8 bits
    Scan type                        : Progressive
    Bits/(Pixel*Frame)               : 0.179
    Stream size                      : 571 MiB (85%)
    Writing library                  : XviD 1.2.1 (UTC 2008-12-04)
    
    Audio
    ID                               : 1
    Format                           : MPEG Audio
    Format version                   : Version 1
    Format profile                   : Layer 3
    Mode                             : Joint stereo
    Mode extension                   : MS Stereo
    Codec ID                         : 55
    Codec ID/Hint                    : MP3
    Duration                         : 1h 47mn
    Bit rate mode                    : Constant
    Bit rate                         : 128 Kbps
    Channel(s)                       : 2 channels
    Sampling rate                    : 48.0 KHz
    Stream size                      : 98.7 MiB (15%)
    Alignment                        : Aligned on interleaves
    Interleave, duration             : 921 ms (23.02 video frames)
    Interleave, preload duration     : 216 ms
    Title                            : LAFANGE PARINDE Tc0 L2 2ch 48 96 DELAY 0ms
    Writing library                  : LAME3.98r
    Encoding settings                : -m j -V 4 -q 2 -lowpass 17 -b 128















    Code:
    http://www.midupload.com/wv80pxgt1bz3




    Code:
    http://www.filethe.net/blitc6ozfj8b/Lafangey.parindey.2010.1cd.Sc.Rip.Xvid.TEAM.DAYN.avi.004.html
    http://www.filethe.net/wzo0yb2u9lrw/Lafangey.parindey.2010.1cd.Sc.Rip.Xvid.TEAM.DAYN.avi.003.html
    http://www.filethe.net/860e32wmswdo/Lafangey.parindey.2010.1cd.Sc.Rip.Xvid.TEAM.DAYN.avi.002.html
    http://www.filethe.net/wm5pvct2nhd2/Lafangey.parindey.2010.1cd.Sc.Rip.Xvid.TEAM.DAYN.avi.001.html






    Last edited by >YawneR<; 08-23-2010 at 02:18 AM.

 

 

Posting Permissions

  • You may not post new threads
  • You may not post replies
  • You may not post attachments
  • You may not edit your posts
  •