Results 1 to 1 of 1
  1. #1

    Wink No One Killed Jessica (2011)900MB (NEw Source) SCam Rip - XViD [Single Links]

    Follow us on Social Media




    300


    336


    No One Killed Jessica (2011)900MB (NEw Source) SCam Rip - XViD [Single Links]





    General
    Complete name : No One Killed Jessica (2011)900MB - (NEw) SCAM Rip - XViD.mp4
    Format : MPEG-4
    Format profile : Base Media
    Codec ID : isom
    File size : 921 MiB
    Duration : 2h 6mn
    Overall bit rate : 1 020 Kbps

    Video
    ID : 1
    Format : MPEG-4 Visual
    Format profile : [email protected]
    Format settings, BVOP : No
    Format settings, QPel : No
    Format settings, GMC : No warppoints
    Format settings, Matrix : Default (H.263)
    Codec ID : 20
    Duration : 2h 6mn
    Bit rate mode : Variable
    Bit rate : 887 Kbps
    Width : 500 pixels
    Height : 250 pixels
    Display aspect ratio : 2.2:1
    Original display aspect ratio : 2.000
    Frame rate mode : Constant
    Frame rate : 25.000 fps
    Color space : YUV
    Chroma subsampling : 4:2:0
    Bit depth : 8 bits
    Scan type : Progressive
    Bits/(Pixel*Frame) : 0.284
    Stream size : 801 MiB (87%)

    Audio
    ID : 2
    Format : AAC
    Format/Info : Advanced Audio Codec
    Format version : Version 4
    Format profile : LC
    Format settings, SBR : No
    Codec ID : 40
    Duration : 2h 6mn
    Bit rate mode : Variable
    Bit rate : 128 Kbps
    Channel(s) : 2 channels
    Channel positions : Front: L R
    Sampling rate : 44.1 KHz
    Stream size : 116 MiB (13%) (24%)











    Code:
    http://www.duckload.com/dl/vB1P2


    Code:
    http://freakshare.com/files/0e4ud8lo/No-One-Killed-Jessica--2010-900MB----NEw--SCAM-Rip----XViD.mp4.html


    Code:
    http://www.filesonic.com/file/53915510/No One Killed Jessica (2010)900MB - (NEw) SCAM Rip  - XViD.mp4

 

 

Posting Permissions

  • You may not post new threads
  • You may not post replies
  • You may not post attachments
  • You may not edit your posts
  •