Results 1 to 1 of 1
  1. #1
    Hot Member www.desirulez.net
    Join Date
    Sep 2009
    Posts
    1,215

    T

    Thumbs up No One Killed Jessica (2011)500MB - SCAM Rip - XViD

    Follow us on Social Media










    General
    Complete name : No.One.Killed.Jessica.2010
    Format : MPEG-PS
    File size : 487 MiB
    Duration : 2h 6mn
    Overall bit rate : 539 Kbps

    Video
    ID : 224 (0xE0)
    Format : MPEG Video
    Format version : Version 1
    Format settings, BVOP : Yes
    Format settings, Matrix : Default
    Duration : 2h 6mn
    Bit rate mode : Variable
    Bit rate : 400 Kbps
    Width : 352 pixels
    Height : 288 pixels
    Display aspect ratio : 1.086
    Frame rate : 29.970 fps
    Standard : PAL
    Color space : YUV
    Bit depth : 8 bits
    Scan type : Progressive
    Compression mode : Lossy
    Bits/(Pixel*Frame) : 0.132
    Stream size : 362 MiB (74%)

    Audio
    ID : 192 (0xC0)
    Format : MPEG Audio
    Format version : Version 1
    Format profile : Layer 2
    Duration : 2h 6mn
    Bit rate mode : Constant
    Bit rate : 128 Kbps
    Channel(s) : 2 channels
    Sampling rate : 48.0 KHz
    Compression mode : Lossy
    Stream size : 116 MiB (24%)


    Code:
    http://www.fileserve.com/file/7HtNrUr

 

 

Posting Permissions

  • You may not post new threads
  • You may not post replies
  • You may not post attachments
  • You may not edit your posts
  •