Results 1 to 15 of 15
  1. #1
    Super Member
    Join Date
    Dec 2009
    Posts
    23

    T

    Default Kedi_(2010)_1CD_DvD_Rip

    Follow us on Social Media







    Kedi_(2010)_1CD_DvD_Rip








    Download
    Code:
    File Info
    File Name:Kedi_(2010)_1CD_DvD_Rip
    File Type:rar
    Uploaded By: SaLmAn25
    Code:
    http://rapidshare.com/files/389311014/Kedi.600MB.DvDBy_SaLmAn25.mp4.001
    http://rapidshare.com/files/389310651/Kedi.600MB.DvDBy_SaLmAn25.mp4.002
    http://rapidshare.com/files/389311251/Kedi.600MB.DvDBy_SaLmAn25.mp4.003
    http://rapidshare.com/files/389310742/Kedi.600MB.DvDBy_SaLmAn25.mp4.004

  2. #2
    Super Member www.desirulez.net
    Join Date
    Apr 2010
    Posts
    110

    T

    Wink Robinhood 2010 TS Xvid Single Resumable link



    **************************************************************************************************** ****************
    Robin Hood 2010 TS XViD - IMAGiNE
    **************************************************************************************************** ****************
    7.1/10
    Video Codec.......:XVID Release Date......:27/05/10
    Audio Codec.......:MP3 Theatre Date......:14/05/10
    Audio Bitrate.....:128 Runtime...........:2h 11mn
    Subtitles.........:NIL Language..........:ENGLISH
    Resolution...... 720 x 304 IMDb URL..........:Robin Hood (2010)


    DETAILS:

    Video
    Format : MPEG-4 Visual
    Format profile : Streaming [email protected]
    Format settings, BVOP : Yes
    Format settings, QPel : No
    Format settings, GMC : No warppoints
    Format settings, Matrix : Default
    Muxing mode : Packed bitstream
    Codec ID : XVID
    Codec ID/Hint : XviD
    Duration : 2h 11mn
    Bit rate : 1 356 Kbps
    Width : 720 pixels
    Height : 304 pixels
    Display aspect ratio : 2.35
    Frame rate : 23.976 fps
    Resolution : 24 bits
    Colorimetry : 4:2:0
    Scan type : Progressive
    Bits/(Pixel*Frame) : 0.258
    Stream size : 1.25 GiB (91%)
    Writing library : XviD 50

    Audio
    Format : MPEG Audio
    Format version : Version 1
    Format profile : Layer 3
    Codec ID : 55
    Codec ID/Hint : MP3
    Duration : 2h 11mn
    Bit rate mode : Constant
    Bit rate : 128 Kbps
    Channel(s) : 2 channels
    Sampling rate : 44.1 KHz
    Resolution : 16 bits
    Stream size : 120 MiB (9%)
    Alignment : Split accross interleaves
    Interleave, duration : 42 ms (1.00 video frame)
    Interleave, preload duration : 500 ms


    NOTES:

    IMAGiNE bringing you another release..... Robin Hood 2010

    First off many thanks to ELEKTRI4KA for the video source and PrisM for the line audio... Thanks both
    We know this is a bit late, but we wanted to release this to those that may be waiting on it
    Just a quick note on this... This is an okay video source, it has some spots that are dark and
    light so be warned. Audio is nice so did not need to do anything but fix the sync issues with it.
    It lasted for around 1:45 minutes. Also had to change the AR from 2.2:1 to 2.35:1

    Enjoy




    Code:
    http://hotfile.com/dl/45167667/7252b89/PrisM.TS25725.avi.001.html
    http://hotfile.com/dl/45168082/235cc12/PrisM.TS25725.avi.002.html
    http://hotfile.com/dl/45168457/771a31f/PrisM.TS25725.avi.003.html
    http://hotfile.com/dl/45168852/0314602/PrisM.TS25725.avi.004.html
    http://hotfile.com/dl/45169172/c83f2b0/PrisM.TS25725.avi.005.html
    http://hotfile.com/dl/45169449/b2fa0ae/PrisM.TS25725.avi.006.html
    http://hotfile.com/dl/45169666/7373364/PrisM.TS25725.avi.007.html
    http://hotfile.com/dl/45169686/865b2fe/PrisM.TS25725.avi.008.html

    Single link

    Code:
    http://cramit.in/lr4s3w8klszf

  3. #3
    Super Member www.desirulez.net
    Join Date
    Apr 2010
    Posts
    110

    T

    Cool Robinhood 2010 350MB 480P TS Xvid Single Resumable link




    Movie Info

    Robin Hood (2010)

    [TITLE].[ Robin Hood
    [DIRECTOR].[ Ridley Scott
    [RELEASE DATE][ 14 May 2010
    [FORMAT]:..[ Matroska (MKV)
    [GENRE]:[ Action | Drama
    [NO OF CDs][ 1
    [FILE SIZE]:..[ 350MB
    [RESOLUTION]:.[ 720x336
    [LANGUAGE ]:..[ English
    [SUBTITLES]:..[ None
    [RELEASE RUNTIME]:..[ 02:11:32
    [iMDB RATING]:[ 7.1/10







    Code:
    http://hotfile.com/dl/45323181/06ae963/RbnHud.350MB.TS.Xvid.ThUnDeR.mkv.001.html
    http://hotfile.com/dl/45323259/0aef1db/RbnHud.350MB.TS.Xvid.ThUnDeR.mkv.002.html
    http://hotfile.com/dl/45323305/c58c027/RbnHud.350MB.TS.Xvid.ThUnDeR.mkv.003.html
    Single Resumable Link


    Code:
    http://cramit.in/5362wbkkq2wp

  4. #4
    Super Member www.desirulez.net
    Join Date
    Apr 2010
    Posts
    110

    T

    Red face Prince of Persia 2010 400MB TS Xvid Single Resumable link




    Movie Info

    Code:
    http://www.imdb.com/title/tt0473075/
    [FORMAT]:..[ Matroska
    [GENRE]:[ Action | Adventure | Fantasy | Romance
    [FILE SIZE]:..[ 400 MB
    [NO OF CDs]:..[ 1
    [RESOLUTION]:.[ 640x272
    [ASPECT RATIO]:..[ 2.35
    [FRAME RATE]:.[ 23.976 fps
    [LANGUAGE ]:..[ English
    [SUBTITLES]:..[ none
    [ORIGINAL RUNTIME]:.[ 01:43:00
    [RELEASE RUNTIME]:..[ 01:43:00
    [SOURCE]:..[ TS-iMAGiNE
    [iMDB RATING]:[ 6.8/10







    Code:
    http://hotfile.com/dl/45499089/27efa3d/POP.400MB.TS.XvID.ThUnDeR.mkv.001.html
    http://hotfile.com/dl/45499235/cf0ce8f/POP.400MB.TS.XvID.ThUnDeR.mkv.002.html
    http://hotfile.com/dl/45499317/d702b82/POP.400MB.TS.XvID.ThUnDeR.mkv.003.html
    Single Resumable Link

    Code:
    http://cramit.in/rrhiqdtjotbb



  5. #5
    mysterious Mr.A www.desirulez.net
    Join Date
    Mar 2010
    Location
    mumbai,india
    Posts
    130

    T

    Thumbs up Prince Of Persia [2010] [Hindi] TS Xvid



    INFO:
    Code:
    Movie   Name ]............................. [ Prince of Persia [sands of time] ]
    
    Release Date ]............................. [ 28th May 2010
    
    Quality      ]..............................[ TS Rip
    
    Subtitles    ]..............................[ N/A
    
    Language     ]..............................[ Hindi
    
    Ripper       ]..............................[ -=!DJ!=-
    
    Release Group]..............................[ TEAM DAYN
    SCREENSHOTS:






    DOWNLOAD LINKS:
    Code:
    http://rapidshare.com/files/393016054/Prince.Of.Persia.2010.Tc.Rip.Hindi.Team.D.AYN.part1.rar
    http://rapidshare.com/files/393016722/Prince.Of.Persia.2010.Tc.Rip.Hindi.Team.D.AYN.part2.rar
    http://rapidshare.com/files/393016756/Prince.Of.Persia.2010.Tc.Rip.Hindi.Team.D.AYN.part3.rar
    http://rapidshare.com/files/393015943/Prince.Of.Persia.2010.Tc.Rip.Hindi.Team.D.AYN.part4.rar
    OR
    http://hotfile.com/dl/45450616/0a5af4f/Prince.Of.Persia.2010.Tc.Rip.Hindi.Team.D.AYN.part1.rar.html
    http://hotfile.com/dl/45452950/7c00cba/Prince.Of.Persia.2010.Tc.Rip.Hindi.Team.D.AYN.part2.rar.html
    http://hotfile.com/dl/45453293/a8e2b81/Prince.Of.Persia.2010.Tc.Rip.Hindi.Team.D.AYN.part3.rar.html
    http://hotfile.com/dl/45453380/d337ad6/Prince.Of.Persia.2010.Tc.Rip.Hindi.Team.D.AYN.part4.rar.html
    OR
    http://oron.com/uod16f97u5ps/Prince.Of.Persia.2010.Tc.Rip.Hindi.Team.D.AYN.part1.rar.html
    http://oron.com/ouxpi9h5ps0s/Prince.Of.Persia.2010.Tc.Rip.Hindi.Team.D.AYN.part2.rar.html
    http://oron.com/fscavqygmkbz/Prince.Of.Persia.2010.Tc.Rip.Hindi.Team.D.AYN.part3.rar.html
    http://oron.com/1ezw8z52cboe/Prince.Of.Persia.2010.Tc.Rip.Hindi.Team.D.AYN.part4.rar.html
    OR
    http://www.filefactory.com/file/b1eb12a/n/Prince.Of.Persia.2010.Tc.Rip.Hindi.Team.D.AYN.part1.rar
    http://www.filefactory.com/file/b1eb13e/n/Prince.Of.Persia.2010.Tc.Rip.Hindi.Team.D.AYN.part2.rar
    http://www.filefactory.com/file/b1eb136/n/Prince.Of.Persia.2010.Tc.Rip.Hindi.Team.D.AYN.part3.rar
    http://www.filefactory.com/file/b1eb11f/n/Prince.Of.Persia.2010.Tc.Rip.Hindi.Team.D.AYN.part4.rar
    OR
    http://www.filethe.net/w37eda5ga97v/Prince.Of.Persia.2010.Tc.Rip.Hindi.Team.D.AYN.part1.rar.html
    http://www.filethe.net/w37eda5ga97v/Prince.Of.Persia.2010.Tc.Rip.Hindi.Team.D.AYN.part1.rar.html
    http://www.filethe.net/urctm8dsj735/Prince.Of.Persia.2010.Tc.Rip.Hindi.Team.D.AYN.part3.rar.html
    http://www.filethe.net/4q3dcwxcuk84/Prince.Of.Persia.2010.Tc.Rip.Hindi.Team.D.AYN.part4.rar.html

  6. #6
    Senior Member
    Join Date
    Mar 2010
    Posts
    84

    T

    Default

    thaank u .....

  7. #7
    Landed To DesiRulez www.desirulez.net
    Join Date
    Mar 2010
    Posts
    6

    T

    Default Splice (2010)

    Splice (2010)



    Splice (2010) | CAM XViD IMAGiNE | 99Min | English
    XVID 704x304 23fps | MP3 192Kbps 48Khz | 704Mb
    Genre: Horror | SciFi | Thriller


    Elsa and Clive, two young rebellious scientists, defy legal and ethical boundaries and forge ahead with...






    Hotfile.com: One click file hosting
    Hotfile.com: One click file hosting
    Hotfile.com: One click file hosting
    Hotfile.com: One click file hosting


    Or


    Download SI.part2.rar for free on uploading.com
    Download SI.part1.rar for free on uploading.com
    Download SI.part3.rar for free on uploading.com
    Download SI.part4.rar for free on uploading.com

  8. #8
    Landed To DesiRulez www.desirulez.net
    Join Date
    Mar 2010
    Posts
    6

    T

    Default The Karate Kid (2010) CAM XVID-WB

    The Karate Kid (2010) CAM XVID-WB

    The Karate Kid (2010) CAM XVID-WBZ
    CAM | English | 2:13:55 | 640 x 300 | XviD 1069 kbps | MP3 VBR kbps | 709 MB
    Genre: Action | Drama | Family | Sport


    Plot:Work causes a single mother to move to China with her young son; in his new home, the boy embraces kung fu, taught to him by a master.








    Hotfile.com: One click file hosting
    Hotfile.com: One click file hosting
    Hotfile.com: One click file hosting
    Hotfile.com: One click file hosting

  9. #9
    dR Dazzler www.desirulez.net
    Join Date
    Dec 2009
    Location
    3rd PLANET FROM THE SUN
    Posts
    651

    T

    Cool Raavan 2010 1cd Sc Xvid First On Net [DAYN]

    Ravan 2010 1cd Sc Xvid First On Net [DAYN]




    Code:
    http://www.google.co.in/url?sa=t&source=web&cd=1&ved=0CBUQFjAA&url=http%3A%2F%2Fwww.imdb.com%2Ftitle%2Ftt1334470%2F&rct=j&q=Raavan+2010+imdb&ei=wIwbTM_oNMWRrAea8aGtDA&usg=AFQjCNGCv5wwcl4BjGKL0J7S9osMk






    Code:
    http://www.filefactory.com/file/b21d829/n/Ravan.1cd.sc.xvid.Team.Dayn.avi.001
    http://www.filefactory.com/file/b21d82d/n/Ravan.1cd.sc.xvid.Team.Dayn.avi.002
    http://www.filefactory.com/file/b21d82g/n/Ravan.1cd.sc.xvid.Team.Dayn.avi.003
    http://www.filefactory.com/file/b21d824/n/Ravan.1cd.sc.xvid.Team.Dayn.avi.004
    
    or
    
    http://www.midupload.com/ineyx5waxz3b
    http://www.midupload.com/8ge159vgbut7
    http://www.midupload.com/ng2t3ezcybzu
    http://www.midupload.com/x84476pacoxc

    Code:
    http://rapidshare.com/files/400400807/Ravan.1cd.sc.xvid.Team.Dayn.avi.003.html
    http://rapidshare.com/files/400400792/Ravan.1cd.sc.xvid.Team.Dayn.avi.001.html
    http://rapidshare.com/files/400400777/Ravan.1cd.sc.xvid.Team.Dayn.avi.002.html
    http://rapidshare.com/files/400400488/Ravan.1cd.sc.xvid.Team.Dayn.avi.004.html

    Code:
    http://hotfile.com/dl/49245711/1b2ee39/Ravan.1cd.sc.xvid.Team.Dayn.avi.001.html
    http://hotfile.com/dl/49245869/475291f/Ravan.1cd.sc.xvid.Team.Dayn.avi.002.html
    http://hotfile.com/dl/49246029/fe3ea94/Ravan.1cd.sc.xvid.Team.Dayn.avi.003.html
    http://hotfile.com/dl/49246124/0ada0bc/Ravan.1cd.sc.xvid.Team.Dayn.avi.004.html

    Code:
    http://uploading.com/files/ae8deae4/Ravan.1cd.sc.xvid.Team.Dayn.avi.001/
    http://uploading.com/files/ad1ca25f/Ravan.1cd.sc.xvid.Team.Dayn.avi.002/
    http://uploading.com/files/97b5d72d/Ravan.1cd.sc.xvid.Team.Dayn.avi.003/
    http://uploading.com/files/6dba5199/Ravan.1cd.sc.xvid.Team.Dayn.avi.004/

    Code:
    http://www.storage.to/get/1K3enY6s/Ravan.1cd.sc.xvid.Team.Dayn.avi.001
    http://www.storage.to/get/bb5FBc19/Ravan.1cd.sc.xvid.Team.Dayn.avi.002
    http://www.storage.to/get/82OWLzim/Ravan.1cd.sc.xvid.Team.Dayn.avi.003
    http://www.storage.to/get/Jd5WVV8r/Ravan.1cd.sc.xvid.Team.Dayn.avi.004

    Code:
    http://www.fileserve.com/file/GQbEFcq
    http://www.fileserve.com/file/CDDnREw
    http://www.fileserve.com/file/7tWtGbk
    http://www.fileserve.com/file/9z3B9qH

    Code:
    http://www.megaupload.com/?d=XN2FKBPY
    http://www.megaupload.com/?d=O9JOWSV3
    http://www.megaupload.com/?d=EIR8PT5J
    http://www.megaupload.com/?d=Q3Y7KOGW

  10. #10
    dR Dazzler www.desirulez.net
    Join Date
    Mar 2009
    Posts
    1,518

    T

    Default Raavan - 2010 * S-CAMRip - *Team IcTv* Exclusive l Resume Links

    Raavan - 2010 - S-CAMRip - *Team IcTv* Exclusive
    First On Net



    Code:
    DVD Information
    
      
    Genre............: Thriller
    Distributor......: Madras Talkies
    Year.............: 2010
    Cast.............: Abhishek Bacchan - Aiswarya rai bacchan
    Source...........: Intellect Clever - Team IcTv
    Format...........: S-CAM-Rip
    Audio Languages..: Hindi
    RunTime .........: 1HR 58 min
    
    Note ............ : Always Remember No Body Can Beat IcTv








    Code:
    http://hotfile.com/dl/49269055/6e79b08/Arvendu.-_-.Raavan.2010.SCam.RipTeam.IcTv.avi.001.html
    http://hotfile.com/dl/49269160/2502a87/Arvendu.-_-.Raavan.2010.SCam.RipTeam.IcTv.avi.002.html
    http://hotfile.com/dl/49269253/72b3374/Arvendu.-_-.Raavan.2010.SCam.RipTeam.IcTv.avi.003.html
    http://hotfile.com/dl/49269314/b793cbc/Arvendu.-_-.Raavan.2010.SCam.RipTeam.IcTv.avi.004.html
    Code:
    http://cramit.in/dqwyx28wvrww
    http://cramit.in/we8b2gk8cj5l
    http://cramit.in/a7ouf0tf4xu6
    http://cramit.in/4exmqa6tmcsf
    Code:
    http://rapidshare.com/files/400441503/Arvendu.-_-.Raavan.2010.SCam.RipTeam.IcTv.avi.001
    http://rapidshare.com/files/400441515/Arvendu.-_-.Raavan.2010.SCam.RipTeam.IcTv.avi.002
    http://rapidshare.com/files/400441478/Arvendu.-_-.Raavan.2010.SCam.RipTeam.IcTv.avi.003
    http://rapidshare.com/files/400441225/Arvendu.-_-.Raavan.2010.SCam.RipTeam.IcTv.avi.004
    Code:
    http://www.filestab.com/d01mz8q4tboy/Arvendu.-_-.Raavan.2010.SCam.RipTeam.IcTv.avi.001.html
    http://www.filestab.com/7l9k5ojq0ta3/Arvendu.-_-.Raavan.2010.SCam.RipTeam.IcTv.avi.002.html
    http://www.filestab.com/6mwmsaz8u7r8/Arvendu.-_-.Raavan.2010.SCam.RipTeam.IcTv.avi.003.html
    http://www.filestab.com/1mjjs8j1p5y1/Arvendu.-_-.Raavan.2010.SCam.RipTeam.IcTv.avi.004.html
    Code:
    http://loadfiles.in/9qgp9mk6v9fu/Arvendu.-_-.Raavan.2010.SCam.RipTeam.IcTv.avi.001
    http://loadfiles.in/692c3ad0jns5/Arvendu.-_-.Raavan.2010.SCam.RipTeam.IcTv.avi.002
    http://loadfiles.in/4d19cn8uhgkk/Arvendu.-_-.Raavan.2010.SCam.RipTeam.IcTv.avi.003
    http://loadfiles.in/rhz9zkfq8fv8/Arvendu.-_-.Raavan.2010.SCam.RipTeam.IcTv.avi.004
    Code:
    http://cramit.in/gmttjo824xbt

  11. #11
    Runner Up - Admins Awards www.desirulez.net
    Join Date
    Dec 2009
    Posts
    24,894

    T

    Default Toy Story 3 [2010] CAM x264

















    Code:
    http://www.imdb.com/title/tt0435761/
    Code:
    http://rapidshare.com/files/400693321/PrisM-TStory3-Team-TDK.part1.rar
    http://rapidshare.com/files/400692940/PrisM-TStory3-Team-TDK.part2.rar
    http://rapidshare.com/files/400692919/PrisM-TStory3-Team-TDK.part3.rar
    http://rapidshare.com/files/400692924/PrisM-TStory3-Team-TDK.part4.rar
    http://rapidshare.com/files/400692979/PrisM-TStory3-Team-TDK.part5.rar
    http://rapidshare.com/files/400693082/PrisM-TStory3-Team-TDK.part6.rar
    http://rapidshare.com/files/400692355/PrisM-TStory3-Team-TDK.part7.rar
    Code:
    http://www.megaupload.com/?d=F36Z7GA6
    http://www.megaupload.com/?d=WJOM4EWC
    http://www.megaupload.com/?d=F1LCDJX0
    http://www.megaupload.com/?d=K0LWMG4O
    http://www.megaupload.com/?d=QFS9PKG6
    http://www.megaupload.com/?d=CY4SX2UR
    http://www.megaupload.com/?d=OEQ8LXHX
    Premium link
    Code:
    http://www.megaupload.com/?d=SZPJJZ7C
    x264 300 MB MKV Version

    Code:
    http://www.imdb.com/title/tt0435761/
    
    [FORMAT]:..[ Matroska
    [GENRE]:[ Animation | Adventure | Comedy | Family | Fantasy
    [FILE SIZE]:..[ 350 MB
    [NO OF CDs]:..[ 1
    [RESOLUTION]:.[ 720 x 360
    [FRAME RATE]:.[ 25.000 fps
    [LANGUAGE ]:..[ English
    [SUBTITLES]:..[ none
    [ORIGINAL RUNTIME]:.[ 01:34:06
    [RELEASE RUNTIME]:..[ 01:34:06
    [SOURCE]:..[ CAM--
    [iMDB RATING]:[ 9.5/10
    Code:
    http://rapidshare.com/files/400797401/ToyStory3-CAM-x264-Team-TDK.part1.rar
    http://rapidshare.com/files/400802437/ToyStory3-CAM-x264-Team-TDK.part2.rar
    http://rapidshare.com/files/400807335/ToyStory3-CAM-x264-Team-TDK.part3.rar
    or
    http://www.megaupload.com/?d=R1V4XLCD
    http://www.megaupload.com/?d=1TF85323
    http://www.megaupload.com/?d=52L930CC
    Premium link
    Code:
    http://rapidshare.com/files/400811839/ToyStory3-CAM-x264-Team-TDK.mkv
    http://www.megaupload.com/?d=SUEQ9VBZ
    =================================================================================


    x264 350 MB MKV Version







    Code:
    http://www.imdb.com/title/tt0435761/
    
    [FORMAT]:..[ Matroska
    [GENRE]:[ Animation | Adventure | Comedy | Family | Fantasy
    [FILE SIZE]:..[ 350 MB
    [NO OF CDs]:..[ 1
    [RESOLUTION]:.[ 704x368
    [ASPECT RATIO]:..[ 1.913 ( fixed Aspect Ratio )
    [FRAME RATE]:.[ 25.000 fps
    [LANGUAGE ]:..[ English
    [SUBTITLES]:..[ none
    [ORIGINAL RUNTIME]:.[ 01:34:06
    [RELEASE RUNTIME]:..[ 01:34:06
    [SOURCE]:..[ CAM
    [iMDB RATING]:[ 9.5/10
    Code:
    http://rapidshare.com/files/400795621/Stew.of.Troy.300.264.Team-TDK.mkv.001.html
    http://rapidshare.com/files/400795475/Stew.of.Troy.300.264.Team-TDK.mkv.002.html
    http://rapidshare.com/files/400795248/Stew.of.Troy.300.264.Team-TDK.mkv.003.html
    OR
    http://www.fileserve.com/file/QQDA4e9
    http://www.fileserve.com/file/FPmuxFP
    http://www.fileserve.com/file/uyUQrQf

    ...being a human...



  12. #12
    dR Dazzler www.desirulez.net
    Join Date
    Dec 2009
    Location
    3rd PLANET FROM THE SUN
    Posts
    651

    T

    Cool Toy Story - 2010 - TS - XviD-PrisM - Single Resumable Links













    [/CENTER]





    ~*~ SINGLE RESUMABLE LINK ~*~


    Code:
    http://cramit.in/m2u4i9huok0r

    ~*~ 250Mb Links ~*~


    Code:
    http://cramit.in/z6wjjrrxjdms
    http://cramit.in/7rkydrt4txhe
    http://cramit.in/hrqmtmw8vmln
    http://cramit.in/e4am0c4blz00
    http://cramit.in/lnsh41oexbjn
    http://cramit.in/2dynfludmga7

    Code:
    http://hotfile.com/dl/49700063/cc779eb/TS3.2010.TS.XviD-PrisM.avi.part1.rar.html
    http://hotfile.com/dl/49700154/30edc1c/TS3.2010.TS.XviD-PrisM.avi.part2.rar.html
    http://hotfile.com/dl/49700251/2765928/TS3.2010.TS.XviD-PrisM.avi.part3.rar.html
    http://hotfile.com/dl/49700312/82a177f/TS3.2010.TS.XviD-PrisM.avi.part4.rar.html
    http://hotfile.com/dl/49700426/391df81/TS3.2010.TS.XviD-PrisM.avi.part5.rar.html
    http://hotfile.com/dl/49700566/4c0cd14/TS3.2010.TS.XviD-PrisM.avi.part6.rar.html

    Code:
    http://www.filefactory.com/file/b22a6fh/n/TS3.2010.TS.XviD-PrisM.avi.part1.rar
    http://www.filefactory.com/file/b22a767/n/TS3.2010.TS.XviD-PrisM.avi.part2.rar
    http://www.filefactory.com/file/b22a76e/n/TS3.2010.TS.XviD-PrisM.avi.part3.rar
    http://www.filefactory.com/file/b22a755/n/TS3.2010.TS.XviD-PrisM.avi.part4.rar
    http://www.filefactory.com/file/b22a78c/n/TS3.2010.TS.XviD-PrisM.avi.part5.rar
    http://www.filefactory.com/file/b22a78a/n/TS3.2010.TS.XviD-PrisM.avi.part6.rar
    Code:
    http://www.fileserve.com/file/pCkq2we
    http://www.fileserve.com/file/KvMzcew
    http://www.fileserve.com/file/P9drMAn
    http://www.fileserve.com/file/M2Bv6hU
    http://www.fileserve.com/file/VqUR3wC
    http://www.fileserve.com/file/qJgn9TX

  13. #13
    Runner Up - Admins Awards www.desirulez.net
    Join Date
    Dec 2009
    Posts
    24,894

    T

    Default Jonah Hex 2010 CAM XviD



    NFO
    Code:
    Jonah.Hex.2010.CAM.XviD-
    http://www.imdb.com/title/tt1075747/
     
    Plot:
    The U.S. military makes a scarred bounty hunter with warrants on his own head an offer he cannot refuse: in exchange for his freedom, he must stop a terrorist who is ready to unleash Hell on Earth.
     
    
    Format                           : AVI
    Format/Info                      : Audio Video Interleave
    File size                        : 638 MiB
    Duration                         : 1h 12mn
    Overall bit rate                 : 1 225 Kbps
    Writing application              : MEncoder Sherpya-SVN-r27811-4.2.5
    Writing library                  : VirtualDub build 32661/release
     
    Video
    ID                               : 0
    Format                           : MPEG-4 Visual
    Format profile                   : [email protected]
    Format settings, BVOP            : Yes
    Format settings, QPel            : No
    Format settings, GMC             : No warppoints
    Format settings, Matrix          : Default (H.263)
    Muxing mode                      : Packed bitstream
    Codec ID                         : XVID
    Codec ID/Hint                    : XviD
    Duration                         : 1h 12mn
    Bit rate                         : 1 086 Kbps
    Width                            : 640 pixels
    Height                           : 352 pixels
    Display aspect ratio             : 16:9
    Frame rate                       : 29.970 fps
    Resolution                       : 24 bits
    Colorimetry                      : 4:2:0
    Scan type                        : Progressive
    Bits/(Pixel*Frame)               : 0.161
    Stream size                      : 565 MiB (89%)
    Writing library                  : XviD 1.2.1 (UTC 2008-12-04)
     
    Audio
    ID                               : 1
    Format                           : MPEG Audio
    Format version                   : Version 1
    Format profile                   : Layer 3
    Codec ID                         : 55
    Codec ID/Hint                    : MP3
    Duration                         : 1h 12mn
    Bit rate mode                    : Constant
    Bit rate                         : 128 Kbps
    Channel(s)                       : 2 channels
    Sampling rate                    : 44.1 KHz
    Resolution                       : 16 bits
    Stream size                      : 66.4 MiB (10%)
    Alignment                        : Split accross interleaves
    Interleave, duration             : 33 ms (1.00 video frame)
    Interleave, preload duration     : 500 ms

    Screen Shots












    Genre: Action | Drama | Thriller | Western
    IMDB rating: 4.3/10 (1,162 votes)
    Directed by: Jimmy Hayward
    Starring: Megan Fox, Josh Brolin, John Malkovich

    Release Name: Jonah.Hex.2010.CAM.XviD-TA
    Size: 700mb
    Audio Quality: English 128 kbps MP3
    Video Quality: XviD 640353 - 1 086 kbps

    Download Links

    Rapidshare

    Code:
    http://rapidshare.com/files/401992077/JH2010CAM-TA.part1.rar
    http://rapidshare.com/files/401992151/JH2010CAM-TA.part2.rar
    http://rapidshare.com/files/401992219/JH2010CAM-TA.part3.rar
    http://rapidshare.com/files/401992248/JH2010CAM-TA.part4.rar
    http://rapidshare.com/files/401993676/JH2010CAM-TA.part5.rar
    http://rapidshare.com/files/401993695/JH2010CAM-TA.part6.rar
    http://rapidshare.com/files/401993682/JH2010CAM-TA.part7.rar
    Hotfile
    Code:
    http://hotfile.com/dl/50139223/fd98729/JH2010CAM-TA.part1.rar
    http://hotfile.com/dl/50139531/3a303a6/JH2010CAM-TA.part2.rar
    http://hotfile.com/dl/50139523/42f4640/JH2010CAM-TA.part3.rar
    http://hotfile.com/dl/50139485/62dbee3/JH2010CAM-TA.part4.rar
    http://hotfile.com/dl/50140075/d129c6e/JH2010CAM-TA.part5.rar
    http://hotfile.com/dl/50140129/71cd084/JH2010CAM-TA.part6.rar
    http://hotfile.com/dl/50140103/3362ee7/JH2010CAM-TA.part7.rar
    ...being a human...



  14. #14
    dR Dazzler www.desirulez.net
    Join Date
    Jun 2010
    Location
    ਪੰਜਾਬ
    Posts
    413

    T

  15. #15

    Thumbs up Toy Story 3 (2010) CAM XviD-PrisM





    Code:
    Toy.Story.2010.TS.XviD-PrisM
    
    Movie Information:::::
    Original Movie Site:: http://disney.go.com/toystory/
    IMDB::::::::::::::::: http://www.imdb.com/title/tt0435761/
    Trailer:::::::::::::: http://www.imdb.com/title/tt0435761/videogallery
    Genre:::::::::::::::: Animation | Adventure | Comedy | Family | Fantasy 
    Rating::::::::::::::: 9.5/10   1,701 votes 
    Plot::::::::::::::::: Woody, Buzz, and the rest of their toy-box friends are dumped in a day-care center after their owner, Andy, departs 
                          for college.
    
    Video:
    Codec:::::::::::::::: XviD
    Duration::::::::::::: 1Hour 34Minutes
    Bitrate:::::::::::::: 1888
    Width:::::::::::::::: 720
    Height::::::::::::::: 360
    Frame Rate::::::::::: 25.000fps
    Size::::::::::::::::: 1.21GB
    Language::::::::::::: English
    Subtitles:::::::::::: n/a
    Video Source::::::::: istoria_igrushek_camrip_relizlab Much thanks.
    
    Audio:
    Codec:::::::::::::::: MP3
    Bitrate:::::::::::::: 128KB/s
    Frequency:::::::::::: 48.0Khz
    Audio Source::::::::: Ice Thanks bro :)
    
    Release Notes:
    Same video as before....with line audio.It had a bad crop and flicker noise etc, but still nice:), well made a avs script with
    some filters in it....tweaked the RGB, slightly changed the saturation on the source, didn't seem to bad, added a deblock filter
    added a sharpness filter, and a smoothness, it made the video look pretty damn good.... it took just over 9hours to encode but
    well worth it...looks pretty sweet if you ask me:D Audio had a bad crackling noise, removed most of it as we could. Enjoy. 
    
    Website: www.prism.re
    IRC:     /s irc.priism.com:9050
    
    
    Looking for::::::::::::::
    Any English Audio, CAM's, DVD Street Silver, DVDScreeners, Screeners..Anything else?
    Contact us at [email protected]














    :::::::::::::::::::::::::::::::::::: LINKS (Interchangeable) ::::::::::::::::::::::::::::::::::::

    Download (Fileserve.com)


    Code:
    http://www.fileserve.com/file/Y66rMUn/Toy00Story3(2010).CAM00PrisM.part1.rar
    http://www.fileserve.com/file/A6aCBUJ/Toy00Story3(2010).CAM00PrisM.part2.rar
    http://www.fileserve.com/file/sfsfv9F/Toy00Story3(2010).CAM00PrisM.part3.rar
    http://www.fileserve.com/file/4Gtjjba/Toy00Story3(2010).CAM00PrisM.part4.rar
    http://www.fileserve.com/file/sDywSaB/Toy00Story3(2010).CAM00PrisM.part5.rar
    http://www.fileserve.com/file/rkUGpHC/Toy00Story3(2010).CAM00PrisM.part6.rar
    http://www.fileserve.com/file/ACENxfD/Toy00Story3(2010).CAM00PrisM.part7.rar
    Mirror (Sharingmatrix.com)


    Code:
    http://sharingmatrix.com/file/11411589/Toy00Story3(2010).CAM00PrisM.part1.rar
    http://sharingmatrix.com/file/11401391/Toy00Story3(2010).CAM00PrisM.part2.rar
    http://sharingmatrix.com/file/11401413/Toy00Story3(2010).CAM00PrisM.part3.rar
    http://sharingmatrix.com/file/11401433/Toy00Story3(2010).CAM00PrisM.part4.rar
    http://sharingmatrix.com/file/11410767/Toy00Story3(2010).CAM00PrisM.part5.rar
    http://sharingmatrix.com/file/11400659/Toy00Story3(2010).CAM00PrisM.part6.rar
    http://sharingmatrix.com/file/11400343/Toy00Story3(2010).CAM00PrisM.part7.rar

 

 

Tags for this Thread

Posting Permissions

  • You may not post new threads
  • You may not post replies
  • You may not post attachments
  • You may not edit your posts
  •