Results 1 to 1 of 1
  1. #1

    Default Kaam Ka Plot (2011) 1CD - DVDSCR - X264 - MP3 - Team IcTv Exclusive

    Follow us on Social Media










    Banner...........: VENUS
    Genre............: Comedy
    Cast.............: Ranvir Shorey, Sandhya Mridul and Vinay Pathak,
    Sroty Line ......:
    Kaam ka Plot is a dramatic thriller set against the backdrop of the recent recession in India.

    On the face of it Dashrath Srivastava seems like any other person. He is a 36-year old marketing graduate, married with a child. Every morning he dresses up, packs his lunch and leaves for work. The only thing wrong with this picture is that Dashrath has no job.

    Ripper...........: IcTV GHOST

    Format : Matroska
    File size : 682 MiB
    Duration : 2h 54mn
    Overall bit rate : 546 Kbps
    Encoded date : UTC 2011-06-16 11:39:40
    Writing application : mkvmerge v2.2.0 ('Turn It On Again') built on Mar 4 2008 13:20:25
    Writing library : libebml v0.7.7 libmatroska v0.8.1

    Video
    ID : 1
    Format : AVC
    Format/Info : Advanced Video Codec
    Format profile : [email protected]
    Format settings, CABAC : Yes
    Format settings, ReFrames : 4 frames
    Codec ID : V_MPEG4/ISO/AVC
    Duration : 2h 54mn
    Bit rate : 436 Kbps
    Width : 608 pixels
    Height : 272 pixels
    Display aspect ratio : 2.25:1
    Frame rate : 29.970 fps
    Color space : YUV
    Chroma subsampling : 4:2:0
    Bit depth : 8 bits
    Scan type : Progressive
    Bits/(Pixel*Frame) : 0.088
    Stream size : 536 MiB (79%)
    Writing library : x264 core 115 r1995 c1e60b9
    Language : Hindi

    Audio
    ID : 2
    Format : MPEG Audio
    Format version : Version 1
    Format profile : Layer 3
    Mode : Joint stereo
    Mode extension : MS Stereo
    Codec ID : A_MPEG/L3
    Codec ID/Hint : MP3
    Duration : 2h 54mn
    Bit rate mode : Variable
    Bit rate : 106 Kbps
    Nominal bit rate : 128 Kbps
    Channel(s) : 2 channels
    Sampling rate : 48.0 KHz
    Compression mode : Lossy
    Stream size : 133 MiB (19%)
    Writing library : LAME3.98r
    Encoding settings : -m j -V 4 -q 2 -lowpass 17 --abr 128
    Language : Hindi

    * Screen Shots *























    [IMG]http://img.***************/mediafire.png[/IMG]
    MediaFire Download Links
    [IMG]http://img.***************/megaupload.jpg[/IMG]
    MegaUpload Download Links
    [IMG]http://img.***************/hotfile.png[/IMG]
    HotFile Download Links
    [IMG]http://img.***************/fileserve.jpg[/IMG]
    FileServe Download Links
    [IMG]http://img.***************/filesonic.jpg[/IMG]
    FileSonic Download Links
    [IMG]http://img.***************/rapidshare.png[/IMG]
    RapidShare Download Links
    [IMG]http://img.***************/putlocker.png[/IMG]
    PutLocker Download Links

    Single Download Links
    [IMG]http://img.***************/megaupload.jpg[/IMG]
    MegaUpload Download Links
    [IMG]http://img.***************/fileserve.jpg[/IMG]
    FileServe Download Links
    [IMG]http://img.***************/filesonic.jpg[/IMG]
    FileSonic Download Links

    [IMG]http://img.***************/putlocker.png[/IMG]
    PutLocker Download Links


 

 

Posting Permissions

  • You may not post new threads
  • You may not post replies
  • You may not post attachments
  • You may not edit your posts
  •