Results 1 to 1 of 1
  1. #1
    dR Dazzler www.desirulez.net
    Join Date
    Jan 2010
    Posts
    4,263

    T

    Default Inception (2010) CAM XviD-TA + 350MB best

    Follow us on Social Media









    INCEPTION (2010) - CAM.XviD - BEST QUALITY

    IMDB 9.3/10 58,361votes #Top 250 - #3

    Code:
    http://www.imdb.com/title/tt1375666/

    PostPosted: Sun Jul 25, 2010 8:44 am Post subject: [HF] Inception (2010) CAM XviD-TA + 350MB best Reply with quote Report postBack to top
    MY UPLOAD...ONLY QUALITY UPLOAD IS UPLOADED

    So please do support me by replying to this thread or if u have any feedbacks!


    UPDATE: ADDED FULL RELEASE + 350MB RELEASE


    ~CONFIRMATION~

    bennyton wrote:
    good cam, thanks


    serafincro wrote:
    thanks a lot!!!


    Demonxl wrote:
    Thanks


    Image

    Image

    INCEPTION (2010) - CAM.XviD - BEST QUALITY

    IMDB 9.3/10 58,361votes #Top 250 - #3

    Code:
    Inception (2010)


    ..:Back Up Ready:..
    Just inform me of any dead links and i'll just re-upload it ASAP..and you can continue downloading the file




    Code:
    IMDB                    : http://www.imdb.com/title/tt1375666/
    Format                           : AVI
    Format/Info                      : Audio Video Interleave
    File size                        : 1.41 GiB
    Duration                         : 2h 10mn
    Overall bit rate                 : 1 545 Kbps
    Writing library                  : VirtualDub build 32661/release
    
    Video
    ID                               : 0
    Format                           : MPEG-4 Visual
    Format profile                   : [email protected]
    Format settings, BVOP            : Yes
    Format settings, QPel            : No
    Format settings, GMC             : No warppoints
    Format settings, Matrix          : Default (H.263)
    Muxing mode                      : Packed bitstream
    Codec ID                         : XVID
    Codec ID/Hint                    : XviD
    Duration                         : 2h 10mn
    Bit rate                         : 1 406 Kbps
    Width                            : 640 pixels
    Height                           : 352 pixels
    Display aspect ratio             : 16:9
    Frame rate                       : 29.970 fps
    Resolution                       : 24 bits
    Colorimetry                      : 4:2:0
    Scan type                        : Progressive
    Bits/(Pixel*Frame)               : 0.208
    Stream size                      : 1.28 GiB (91%)
    Writing library                  : XviD 1.2.1 (UTC 2008-12-04)
    
    Audio
    ID                               : 1
    Format                           : MPEG Audio
    Format version                   : Version 1
    Format profile                   : Layer 3
    Format_Settings_Mode             : Joint stereo / MS Stereo
    Codec ID                         : 55
    Codec ID/Hint                    : MP3
    Duration                         : 2h 10mn
    Bit rate mode                    : Constant
    Bit rate                         : 128 Kbps
    Channel(s)                       : 2 channels
    Sampling rate                    : 44.1 KHz
    Resolution                       : 16 bits
    Stream size                      : 120 MiB (8%)
    Alignment                        : Split accross interleaves
    Interleave, duration             : 33 ms (1.00 video frame)
    Interleave, preload duration     : 500 ms
    ==================================================
    ALL LINKS INTERCHANGEABLE


    REUPLOADED - 6 TIMES FOR YOU GUYS!

    ..::400MB LINKS/4 DOWNLOADS::..

    Code:
    http://hotfile.com/dl/57326685/dc86216/Inception.2010.CAM.TA.x264.350MB.part1.rar.html
    http://hotfile.com/dl/57327323/7c6173d/Inception.2010.CAM.TA.x264.350MB.part2.rar.html

 

 

Posting Permissions

  • You may not post new threads
  • You may not post replies
  • You may not post attachments
  • You may not edit your posts
  •