Results 1 to 1 of 1
  1. #1

    Red face Gullivers Travel (2010)500Mb SCam Rip - Hindi Dubbed

    Follow us on Social Media







    Gullivers Travel (2010)500Mb SCam Rip - Hindi Dubbed





    General
    Complete name : GULIVER.mpg
    Format : MPEG-PS
    File size : 507 MiB
    Duration : 1h 7mn
    Overall bit rate : 1 056 Kbps

    Video
    ID : 224 (0xE0)
    Format : MPEG Video
    Format version : Version 2
    Format profile : [email protected]
    Format settings, BVOP : Yes
    Format settings, Matrix : Default
    Format settings, GOP : M=3, N=15
    Duration : 1h 7mn
    Bit rate mode : Variable
    Bit rate : 900 Kbps
    Width : 352 pixels
    Height : 288 pixels
    Display aspect ratio : 4:3
    Frame rate : 25.000 fps
    Standard : PAL
    Color space : YUV
    Chroma subsampling : 4:2:0
    Bit depth : 8 bits
    Scan type : Progressive
    Bits/(Pixel*Frame) : 0.355
    Stream size : 451 MiB (89%)

    Audio
    ID : 192 (0xC0)
    Format : MPEG Audio
    Format version : Version 1
    Format profile : Layer 2
    Duration : 1h 7mn
    Bit rate mode : Constant
    Bit rate : 96.0 Kbps
    Channel(s) : 2 channels
    Sampling rate : 48.0 KHz
    Stream size : 46.2 MiB (9%)











    Code:
    http://www.duckload.com/dl/mA3P2


    Code:
    http://freakshare.com/files/f8unresw/GULIVER.mpg.html


    CREDITS TO ORIGINAL RELEASER



 

 

Posting Permissions

  • You may not post new threads
  • You may not post replies
  • You may not post attachments
  • You may not edit your posts
  •