Results 1 to 1 of 1
  1. #1
    dR Contributor www.desirulez.net
    Join Date
    Feb 2011
    Posts
    482

    T

    Default Force (2011) - HinDi - SCAM - Rip - XviD - MP3 - 1.1GB - [TMK]

    Follow us on Social Media







    Force (2011) - HinDi - SCAM - Rip - XviD - MP3 - 1.1GB - [TMK]





    Format : AVIFormat/Info : Audio Video InterleaveFormat profile : OpenDMLFile size : 1.11 GiBDuration : 2h 8mnOverall bit rate : 1 238 KbpsWriting application : Lavf52.39.1VideoID : 0Format : xvidCodec ID : xvidDuration : 2h 8mnBit rate : 139 KbpsWidth : 624 pixelsHeight : 272 pixelsDisplay aspect ratio : 2.25:1Frame rate : 29.970 fpsBits/(Pixel*Frame) : 0.027Stream size : 128 MiB (11%)AudioID : 1Format : MPEG AudioCodec ID : 55Codec ID/Hint : MP3Duration : 2h 8mnBit rate : 64.0 KbpsChannel(s) : 2 channelsSampling rate : 44.1 KHzCompression mode : LossyStream size : 5.33 MiB (0%)Alignment : Aligned on interleavesInterleave, duration : 36 ms (1.09 video frame)





    Movie Link::


    Code:
    http://www.filesonic.com/file/2282824421/Force.2011.SCAM.XviD.MP3.1.11GB-SDL.avi
    
    http://www.filejungle.com/f/8wjxmh
    
    
    
    
    http://www.fileserve.com/file/gcHmEpF

 

 

Posting Permissions

  • You may not post new threads
  • You may not post replies
  • You may not post attachments
  • You may not edit your posts
  •