Results 1 to 1 of 1
  1. #1
    Hot Member www.desirulez.net
    Join Date
    Oct 2010
    Posts
    859

    T

    Cool Force (2011) - HinDi - SCAM - Rip - XviD - MP3 - 1.1GB - [TMK]

    Follow us on Social Media









    Code:
    Format                           : AVI
    Format/Info                      : Audio Video Interleave
    Format profile                   : OpenDML
    File size                        : 1.11 GiB
    Duration                         : 2h 8mn
    Overall bit rate                 : 1 238 Kbps
    Writing application              : Lavf52.39.1
    
    Video
    ID                               : 0
    Format                           : xvid
    Codec ID                         : xvid
    Duration                         : 2h 8mn
    Bit rate                         : 139 Kbps
    Width                            : 624 pixels
    Height                           : 272 pixels
    Display aspect ratio             : 2.25:1
    Frame rate                       : 29.970 fps
    Bits/(Pixel*Frame)               : 0.027
    Stream size                      : 128 MiB (11%)
    
    Audio
    ID                               : 1
    Format                           : MPEG Audio
    Codec ID                         : 55
    Codec ID/Hint                    : MP3
    Duration                         : 2h 8mn
    Bit rate                         : 64.0 Kbps
    Channel(s)                       : 2 channels
    Sampling rate                    : 44.1 KHz
    Compression mode                 : Lossy
    Stream size                      : 5.33 MiB (0%)
    Alignment                        : Aligned on interleaves
    Interleave, duration             : 36 ms (1.09 video frame)



    Credits : TMK





    Code:
    http://www.wupload.com/file/247926298/Force.2011.SCAM.XviD.MP3.1.11GB-SDL.avi


    Code:
    http://www.filesonic.com/file/2258617064/Force.2011.SCAM.XviD.MP3.1.11GB-SDL.avi


    Code:
    http://www.fileserve.com/file/4Yd37dt/Force.2011.SCAM.XviD.MP3.1.11GB-SDL.avi
    Split Links :-

    Code:
    http://www.wupload.com/file/247925240/Force.2011.SCAM.XviD.MP3.1.11GB-SDL.avi.001
    http://www.wupload.com/file/247925310/Force.2011.SCAM.XviD.MP3.1.11GB-SDL.avi.002
    http://www.wupload.com/file/247925556/Force.2011.SCAM.XviD.MP3.1.11GB-SDL.avi.003
    http://www.wupload.com/file/247925502/Force.2011.SCAM.XviD.MP3.1.11GB-SDL.avi.004
    http://www.wupload.com/file/247925086/Force.2011.SCAM.XviD.MP3.1.11GB-SDL.avi.005
    Code:
    http://www.filesonic.com/file/2258617184/Force.2011.SCAM.XviD.MP3.1.11GB-SDL.avi.001
    http://www.filesonic.com/file/2258617204/Force.2011.SCAM.XviD.MP3.1.11GB-SDL.avi.002
    http://www.filesonic.com/file/2258617124/Force.2011.SCAM.XviD.MP3.1.11GB-SDL.avi.003
    http://www.filesonic.com/file/2258617164/Force.2011.SCAM.XviD.MP3.1.11GB-SDL.avi.004
    http://www.filesonic.com/file/2258617254/Force.2011.SCAM.XviD.MP3.1.11GB-SDL.avi.005
    Code:
    http://www.fileserve.com/file/eZfNfe9/Force.2011.SCAM.XviD.MP3.1.11GB-SDL.avi.001
    http://www.fileserve.com/file/u9JRC3w/Force.2011.SCAM.XviD.MP3.1.11GB-SDL.avi.002
    http://www.fileserve.com/file/fZeAjkM/Force.2011.SCAM.XviD.MP3.1.11GB-SDL.avi.003
    http://www.fileserve.com/file/8Jd4Se6/Force.2011.SCAM.XviD.MP3.1.11GB-SDL.avi.004
    http://www.fileserve.com/file/DDtXJeX/Force.2011.SCAM.XviD.MP3.1.11GB-SDL.avi.005

 

 

Posting Permissions

  • You may not post new threads
  • You may not post replies
  • You may not post attachments
  • You may not edit your posts
  •