Results 1 to 2 of 2
  1. #1
    dR Contributor www.desirulez.net
    Join Date
    Jan 2011
    Posts
    2,299

    T

    Smile Dum Maaro Dum (2011) - 1CD - ScamRip - Xvid - MP3 - [Team TDT]

    Follow us on Social Media









    General

    Format : AVI
    Format/Info : Audio Video Interleave
    File size : 670 MiB
    Duration : 1h 59mn
    Overall bit rate : 783 Kbps
    Writing library : VirtualDub build 32842/release

    Video
    ID : 0
    Format : MPEG-4
    Codec ID : XVID
    Codec ID/Hint : XviD
    Duration : 1h 59mn
    Bit rate : 645 Kbps
    Width : 592 pixels
    Height : 272 pixels
    Display aspect ratio : 2.2:1
    Frame rate : 23.976 fps
    Stream size : 552 MiB (82%)

    Audio

    Format : MPEG
    Audio Format version : Version 1
    Codec ID/Hint : MP3
    Duration : 1h 59mn
    Bit rate mode : Constant
    Bit rate : 128 Kbps
    Channel(s) : 2 channels
    Sampling rate : 44.1 KHz
    Compression mode : Lossy
    Stream size : 110 MiB (16%)








    Code:
    http://cramit.in/tehiqm1c7az9
    OR

    Code:
    http://www.fileserve.com/file/XujhWGQ
    Last edited by desi_don; 04-25-2011 at 10:04 AM. Reason: Cramit link deleted, uploaded again

  2. #2
    dR Contributor www.desirulez.net
    Join Date
    Jan 2011
    Posts
    2,299

    T

    Default

    Cramit link deleted, uploaded again

 

 

Posting Permissions

  • You may not post new threads
  • You may not post replies
  • You may not post attachments
  • You may not edit your posts
  •